Welcome Guest ( Log In | Register )

> И неформату есть предел.

Рэп/хип-хоп/шансон/поп удаляются. Для них есть свои порталы.

 
Reply to this topicStart new topic
> King Dude - Death (2022), Gothic Country (D10)
post Oct 5 2022, 13:15:16
Post #1

:3
**************
Group: Металариец
Posts: 4,913
Releases: 103
From: Novosibirsk
On Forums: 15 years 2 months
Thanks: 4010 time(s)
Russian Federation


(IMG:http://metalarea.org/images/audiocovers/2022_Oct/acov_tid370301_thumb.jpg)

*Artist: King Dude
*Album: Death
*Year: 2022
*Genre: Gothic Country
*Country: United States (IMG:http://metalarea.org/forum/style_images/flags/United%20States.png)
*Format: mp3@CBR320kbps
*Size: 93MB

Tracklist:
1. Death's Theme 01:31
2. O' Darkness 02:39
3. Her Design 02:49
4. Silver Cord 04:47
5. Everybody Goes To Heaven 03:03
6. Sweet Death (feat. Shannon F.) 05:25
7. Cast No Reflection 04:32
8. Out Of View 03:46
9. Black And Blue (feat. Nicole Estill) 03:39
10. Pray For Nuclear War 03:27
11. Lay Waste To The Human Race 04:39
******************************
Total playing time: 40:17



Extended info
I've always planned on ending King Dude with Death. I started out writing and recording these songs in my bedroom with no intention of anyone other than my roommates hearing them. I certainly didn't plan on releasing ten albums. Shortly after my first the success of my two EPs I knew that King Dude had the potential to become a problem for me. I worried the meager success I was experiencing could end up luring me into the trap of making King Dude records for the rest of my life. So in order to avoid that fate I planned out the rest of every King Dude album from that point on, ultimately deciding that four of the records should work as companions pieces to one another. Those four albums are Love, Fear, Sex and now finally Death. So as you can clearly see I've already made up my mind in this matter. Ten years ago. And there's nothing I can do to change it without lying to myself about what my life is. Death fulfills the pact I made with my former self and sets me free from acts of repetition and stagnation. It's a necessary, beautiful thing.


Technical info
(IMG:http://metalarea.org/images/spectrogram/2022_Oct/6491533dc16b0b32f80ea523d717257f.png)
Input File: 06 - Sweet Death.mp3
Channels : 2
Sample Rate : 44100
Precision : 16-bit
Duration : 00:05:25.51 = 14354815 samples = 24413 CDDA sectors
File Size : 13.0M
Bit Rate : 320k
Sample Encoding: MPEG audio (layer I, II or III)
Comments :
Title=Sweet Death
Artist=King Dude
Album=Death
Tracknumber=06/11
Year=2022
Genre=Neofolk;Psychedelic Rock
Discnumber=1/1



Register


Go to the top of the page
  Insert nick Quick quote
+Quote Post

Reply to this topicStart new topic
1 User(s) are reading this topic (1 Guests and 0 Anonymous Users)
0 Members:

 



- Lo-Fi Version Support form
Copyrights and abuse reports form
Time is now: 6th December 2022 - 21:22:41