Welcome Guest ( Log In | Register )

> Astru - Ultranada (2022), Black Metal (D)
post Oct 5 2022, 13:23:03
Post #1

Serial Uploader
Group Icon
Group: V.I.P
Posts: 39,568
Releases: 37692
From: Lithuania
On Forums: 14 years 8 months
Thanks: 474351 time(s)
Lithuania


(IMG:http://metalarea.org/images/audiocovers/2022_Oct/acov_tid370302_thumb.jpg)

*Artist: Astru
*Album: Ultranada
*Year: 2022
*Genre: Black Metal
*Country: Hungary (IMG:http://metalarea.org/forum/style_images/flags/Hungary.png)
*Format: mp3@CBR320kbps
*Size: 108MB

Tracklist:
1. Gyásznyitány 06:43
2. Aghoria 05:44
3. Camera Obscura 06:09
4. Nekromanta 04:53
5. Ultraviola 04:07
6. Metatron 01:32
7. Ultranada 17:51
******************************
Total playing time: 46:59



Technical info
(IMG:http://metalarea.org/images/spectrogram/2022_Oct/299060be21a2185dca9dba0106b07b8b.png)
Input File: 03. Camera Obscura.mp3
Channels : 2
Sample Rate : 44100
Precision : 16-bit
Duration : 00:06:09.08 = 16276340 samples = 27680.9 CDDA sectors
File Size : 14.9M
Bit Rate : 323k
Sample Encoding: MPEG audio (layer I, II or III)
Comments :
Title=Camera Obscura
Artist=Astru
Album=Ultranada
Tracknumber=3
Year=2022



Register


Go to the top of the page
  Insert nick Quick quote
+Quote Post
 
Start new topic
Replies (1 - 6)
post Oct 6 2022, 09:02:48
Post #2

Cthulhu Cultist
**********
Group: Металариец
Posts: 1,380
Releases: 5
From: Киев
On Forums: 15 years 3 months
Thanks: 567 time(s)
Ukraine


Хорошее слово для новояза, когда что то очень сильно Нада, это ультранада.
Например, ультранада в Грузию или Казахстан.)
Go to the top of the page
  Insert nick Quick quote
+Quote Post
post Oct 6 2022, 09:29:40
Post #3

кручу наждак
**************
Group: Металариец
Posts: 5,887
Releases: 107
From: Самара
On Forums: 12 years 8 months
Thanks: 4625 time(s)
Russian Federation


Ультранада может быть только в туалет.


Go to the top of the page
  Insert nick Quick quote
+Quote Post
post Oct 6 2022, 10:31:15
Post #4
BAN
Banned till
Aug 29 273792723, 20:43:27



Альбом хороший.
ЦИТАТА(ssv @ 6th October 2022 - 09:02:48) *
Например, ультранада в Грузию или Казахстан.)

Ещё в Литву (IMG:style_emoticons/default/28.gif) Ну и в Польшу, традиционно (IMG:style_emoticons/default/1488.gif)
Go to the top of the page
  Insert nick Quick quote
+Quote Post
post Oct 7 2022, 01:06:37
Post #5

Шесть Литров
******
Group: Металариец
Posts: 509
Releases: 0
On Forums: 14 years 2 weeks
Thanks: 398 time(s)
Brazil


Nada - ничто. Ultranada - сверхничто.
Go to the top of the page
  Insert nick Quick quote
+Quote Post
post Oct 8 2022, 10:10:55
Post #6

Четыре Литра
****
Group: Металариец
Posts: 395
Releases: 32
From: France
On Forums: 13 years 6 months
Thanks: 1020 time(s)
France


01101110 01101111 01101110 00100000 01101101 01100101 01110100 01110101 01101001 01110100 00100000 01101101 01101111 01110010 01110100 01100101 01101101 00100000 01110001 01110101 01101001 00100000 01110011 01100011 01101001 01110100 00100000 01100011 01101111 01101110 01110100 01100101 01101101 01101110 01100101 01110010 01100101 00100000 01110110 01101001 01110100 01100001 01101101
= non metuit mortem qui scit contemnere vitam
Go to the top of the page
  Insert nick Quick quote
+Quote Post
post Oct 9 2022, 05:44:32
Post #7

 
**********
Group: Металариец
Posts: 1,323
Releases: 6
On Forums: 5 years 8 months
Thanks: 902 time(s)
Bhutan


Авангард какой-то... предупреждали бы хоть.
Go to the top of the page
  Insert nick Quick quote
+Quote Post

Reply to this topicStart new topic
2 User(s) are reading this topic (2 Guests and 0 Anonymous Users)
0 Members:

 



- Lo-Fi Version Support form
Copyrights and abuse reports form
Time is now: 8th February 2023 - 18:59:42