Welcome Guest ( Log In | Register )

> Gevurah - Gehinnom (2022), Black Metal (D)
post Oct 14 2022, 00:55:08
Post #1

 
Group Icon
Group: V.I.P
Posts: 2,114
Releases: 182
On Forums: 16 years 4 months
Thanks: 19551 time(s)
Unknown


(IMG:https://metalarea.org/images/audiocovers/2022_Oct/acov_tid370696_thumb.jpg)

*Artist: Gevurah
*Album: Gehinnom
*Year: 2022
*Genre: Black Metal
*Country: Canada (IMG:https://metalarea.org/forum/style_images/flags/Canada.png)
*Format: mp3@CBR320kbps
*Size: 108MB

Tracklist:
1. Gehinnom 2:19
2. At the Orient of Eden 6:46
3. Blood-Soaked Katabasis 05:04
4. Towards the Shifting Sands 8:33
5. LV: 16-22 2:36
6. Memento, Homo... 7:36
7. Gloria in Excelsis Deo, Et Ira ad Homines in Terra 13:09
******************************
Total playing time: 46:03



Extended info
Profound Lore Records, October 15th.


Technical info
(IMG:https://metalarea.org/images/spectrogram/2022_Oct/ea3c055fd07af7984b0899c64e3378b0.png)
Input File: 02 At the Orient of Eden.mp3
Channels : 2
Sample Rate : 44100
Precision : 16-bit
Duration : 00:06:45.94 = 17902042 samples = 30445.6 CDDA sectors
File Size : 16.7M
Bit Rate : 329k
Sample Encoding: MPEG audio (layer I, II or III)
Comments :
Title=At the Orient of Eden
Artist=Gevurah
Album=Gehinnom
Tracknumber=2/7
Year=2022
Genre=Black Metal
Discnumber=1/1



Register


Register


Go to the top of the page
  Insert nick Quick quote
+Quote Post
 
Start new topic
Replies (1 - 7)
post Oct 14 2022, 20:21:10
Post #2

Пять Литров
*****
Group: Металариец
Posts: 459
Releases: 86
From: italy
On Forums: 14 years 7 months
Thanks: 1888 time(s)
Italy


thx a lot
Go to the top of the page
  Insert nick Quick quote
+Quote Post
post Oct 14 2022, 20:52:18
Post #3

кручу наждак
**************
Group: Металариец
Posts: 5,887
Releases: 107
From: Самара
On Forums: 12 years 8 months
Thanks: 4625 time(s)
Russian Federation


Тот случай, когда попыр обложки оказался интересней музыкального содержимого.


Thanks:
(1) Nemez,
Go to the top of the page
  Insert nick Quick quote
+Quote Post
post Oct 14 2022, 22:32:19
Post #4

NOUMENA
**************
Group: Металариец
Posts: 7,752
Releases: 13
On Forums: 13 years 2 months
Thanks: 3742 time(s)
Unknown


Отличный релиз вообще. Рад что Канадцев никуда не унесло.
канадцы нравятся тем что при современных звуковых (и не только) решениях обладают достаточным уровнем оголтелости и интересности (ближе всего к французскому видению).


Thanks:
(1) gobblin,
Go to the top of the page
  Insert nick Quick quote
+Quote Post
post Oct 15 2022, 07:15:19
Post #5

 
**********
Group: Металариец
Posts: 1,323
Releases: 6
On Forums: 5 years 8 months
Thanks: 902 time(s)
Bhutan


Бодренький альбом.
Go to the top of the page
  Insert nick Quick quote
+Quote Post
post Oct 15 2022, 11:52:54
Post #6

пустое и необозримое
**************
Group: Металариец
Posts: 6,078
Releases: 0
On Forums: 7 years 1 week
Thanks: 3819 time(s)
Antarctica


ничего интересного.


Thanks:
(1) Sangreal,
Go to the top of the page
  Insert nick Quick quote
+Quote Post
post Oct 15 2022, 12:42:40
Post #7

While Waiting the Worms
***********
Group: Металариец
Posts: 1,556
Releases: 0
On Forums: 9 years 1 month
Thanks: 2412 time(s)
Unknown


Полуфабрикат. Может и съедобный, но безвкусный.
Для ооочень голодных, короче.


Thanks:
(1) Occultas,
Go to the top of the page
  Insert nick Quick quote
+Quote Post
post Oct 19 2022, 19:21:25
Post #8

ЗмееЛев
*********
Group: Металариец
Posts: 936
Releases: 18
On Forums: 11 years 10 months
Thanks: 2180 time(s)
Russian Federation


Антуражем этот альбом напомнил свежую Patria. Там правда более атмосферно, но тем не менее оба релиза очень достойны и заслуживают расслушивания
Go to the top of the page
  Insert nick Quick quote
+Quote Post

Reply to this topicStart new topic
2 User(s) are reading this topic (2 Guests and 0 Anonymous Users)
0 Members:

 



- Lo-Fi Version Support form
Copyrights and abuse reports form
Time is now: 8th February 2023 - 18:34:36