Welcome Guest ( Log In | Register )

> Zver - Anxiety Strikes Again (2022), Black Metal
post Oct 28 2022, 22:52:49
Post #1

Правь статус, 616
**************
Group: Металариец
Posts: 8,589
Releases: 6858
From: 55°35’N 38°08’E
On Forums: 14 years 7 months
Thanks: 123899 time(s)
Russian Federation


(IMG:https://metalarea.org/images/audiocovers/2022_Oct/acov_tid371400_thumb.jpg)

*Artist: Zver
*Album: Anxiety Strikes Again
*Year: 2022
*Genre: Black Metal
*Country: Russian Federation (IMG:https://metalarea.org/forum/style_images/flags/Russian%20Federation.png)
*Format: mp3@CBR320kbps
*Size: 69MB

Tracklist:
1.Daily Terror 08:31
2.Through The Nightmare 09:00
3.La Bête 07:53
4.Vojny Dlya Vojnov (Otdel Samoiskoreneniya) 03:03
******************************
Total playing time: 28:27



Technical info
(IMG:https://metalarea.org/images/spectrogram/2022_Oct/bb6c802dee35e4e4ff8831f26a9f5569.png)
Input File: 01 daily terror.mp3
Channels : 2
Sample Rate : 44100
Precision : 16-bit
Duration : 00:08:31.12 = 22540260 samples = 38333.8 CDDA sectors
File Size : 20.6M
Bit Rate : 322k
Sample Encoding: MPEG audio (layer I, II or III)
Comments :
Title=daily terror
Artist=Zver
Album=Anxiety Strikes Again
Tracknumber=1
Year=2022
Genre=Black Metal



Register


Go to the top of the page
  Insert nick Quick quote
+Quote Post
 
Start new topic
Replies (1 - 1)
post Oct 29 2022, 08:16:32
Post #2

кручу наждак
**************
Group: Металариец
Posts: 5,887
Releases: 107
From: Самара
On Forums: 12 years 8 months
Thanks: 4625 time(s)
Russian Federation




Thanks:
(1) RUSP73,
Go to the top of the page
  Insert nick Quick quote
+Quote Post

Reply to this topicStart new topic
2 User(s) are reading this topic (2 Guests and 0 Anonymous Users)
0 Members:

 



- Lo-Fi Version Support form
Copyrights and abuse reports form
Time is now: 8th February 2023 - 18:36:02