Welcome Guest ( Log In | Register )

> Gorycz - Kamienie (2022), Avant-Garde Black Metal
post Nov 4 2022, 19:06:06
Post #1

Правь статус, ####!111
**************
Group: Металариец
Posts: 5,960
Releases: 5462
From: Одесса
On Forums: 14 years 8 months
Thanks: 63896 time(s)
Ukraine


(IMG:http://metalarea.org/images/audiocovers/2022_Nov/acov_tid371783_thumb.jpg)

*Artist: Gorycz
*Album: Kamienie
*Year: 2022
*Genre: Avant-Garde Black Metal
*Country: Poland (IMG:http://metalarea.org/forum/style_images/flags/Poland.png)
*Format: mp3@CBR320kbps
*Size: 89MB

Tracklist:
1. Zabieram skórze Twoją twarz 04:27
2. Matka 03:49
3. Na dno 03:48
4. Chcę inne oczy 04:33
5. Szczurom niebieskim 03:18
6. Wybija czas 01:53
7. Znoszone dłlonie 04:40
8. Na czerwono odłlyną łzy 05:04
9. Kamienie milczą 05:43
******************************
Total playing time: 37:15




Extended info
Line - up:

Góral - Bass (Non Opus Dei, Yfel 1710, ex-Ad Noctum, ex-AEON)
Wojtek "Gonzo" Błaszkowski - Drums (Non Opus Dei, ex-Ash Devili, ex-UnSun, ex-Witchcraft, Alne, ex-Third Degree)
Przemek Grabowski - Guitars (ex-AEON, ex-Non Opus Dei)
Tomek Kukliński - Vocals (ex-AEON)

"Kamienie" took four full years to be created. It may seem like a long time for an active band, but considering the various circumstances that have happened to us during this time, we are very happy that they will be released at all. This material was made in pain, although it was not artistic pain. The creation itself is never a painful or difficult process in our case. Riffs, arrangements, words come relatively easy, but life writes various scenarios, often completely unpredictable. We were slowed down by the pandemic and the lockdown, we said goodbye to two great musicians who had formed the face of the band so far. We were looking for more people, and while looking for them, we were also looking for ourselves anew all the time. Finally Tomasz and Michał joined us. The bitterness got the right propulsion, we entered the studio and - it can be said for sure - that everyone had finally dropped their proverbial “stones”.
“I must admit that the album is very important to me personally. It is what we have been for the last 4 years. It's emotional, maybe a bit weird, but I can assure you there is no fiction, no cheating. There is only truth. Anyway, this is our goal in creating. The meaning of any art should be truth. Art begins with truth and searches for truth. The music that Przemek composes stems from a deep experience of life, it is the fruit of everyday life in which we live, which we struggle with as adult men. It is similar with the words that accompany the music. Bitterness is like an antidepressant, it allows itself to cope somehow.”


Technical info
(IMG:http://metalarea.org/images/spectrogram/2022_Nov/e7841e0e573c6d484a8a8267cdddcc34.png)
Input File: 04 - Chcę inne oczy.mp3
Channels : 2
Sample Rate : 44100
Precision : 16-bit
Duration : 00:04:33.00 = 12039300 samples = 20475 CDDA sectors
File Size : 11.0M
Bit Rate : 323k
Sample Encoding: MPEG audio (layer I, II or III)
Comments :
Title=Chcę inne oczy
Artist=Gorycz
Album=Kamienie
Tracknumber=4
Year=2022
Genre=Avant-garde Black Metal



Register


Go to the top of the page
  Insert nick Quick quote
+Quote Post
 
Start new topic
Replies (1 - 2)
post Nov 5 2022, 05:01:52
Post #2

кручу наждак
**************
Group: Металариец
Posts: 5,887
Releases: 107
From: Самара
On Forums: 12 years 8 months
Thanks: 4625 time(s)
Russian Federation


Звук отличный, а материал так себе, не зашло чота. Типично польское авангардное бренчанье.


Thanks:
(1) yuratroll,
Go to the top of the page
  Insert nick Quick quote
+Quote Post
post Feb 1 2023, 15:46:01
Post #3

Group: Дух
Posts: 7
Releases: 0
On Forums: 4 years 10 months
Thanks: 0 time(s)
Czech Republic


Reupload please.
Go to the top of the page
  Insert nick Quick quote
+Quote Post

Reply to this topicStart new topic
2 User(s) are reading this topic (2 Guests and 0 Anonymous Users)
0 Members:

 



- Lo-Fi Version Support form
Copyrights and abuse reports form
Time is now: 8th February 2023 - 17:14:03