Welcome Guest ( Log In | Register )

> И неформату есть предел.

Рэп/хип-хоп/шансон/поп удаляются. Для них есть свои порталы.

 
Reply to this topicStart new topic
> Cocteau Twins - Treasure (1984), Ethereal Wave (D6)
post Nov 22 2022, 07:26:24
Post #1

практики шума одухотворяющего
**************
Group: Металариец
Posts: 3,603
Releases: 124
From: хроник дисмембера
On Forums: 4 years 10 months
Thanks: 5618 time(s)
Russian Federation


(IMG:https://metalarea.org/images/audiocovers/2022_Nov/acov_tid372739_thumb.jpg)

*Artist: Cocteau Twins
*Album: Treasure
*Year: 1984
*Genre: Ethereal Wave
*Country: United Kingdom (IMG:https://metalarea.org/forum/style_images/flags/United%20Kingdom.png)
*Format: mp3@CBR320kbps
*Size: 95MB

Tracklist:
1. Ivo 3:54
2. Lorelei 3:42
3. Beatrix 3:11
4. Persephone 4:25
5. Pandora (For Cindy) 5:31
6. Amelia 3:30
7. Aloysius 3:26
8. Cicely 3:27
9. Otterley 4:00
10. Donimo 6:12
******************************
Total playing time: 41:18

Extended info


Technical info
(IMG:https://metalarea.org/images/spectrogram/2022_Nov/258dd9d92ad2a286e06f554148e3a2ab.png)
Input File: 02. Lorelei.mp3
Channels : 2
Sample Rate : 44100
Precision : 16-bit
Duration : 00:03:42.29 = 9803033 samples = 16671.8 CDDA sectors
File Size : 8.89M
Bit Rate : 320k
Sample Encoding: MPEG audio (layer I, II or III)
Comments :
Title=Lorelei
Artist=Cocteau Twins
Album=Treasure
Tracknumber=2/10
Year=1984



Register


Thanks:
Go to the top of the page
  Insert nick Quick quote
+Quote Post

Reply to this topicStart new topic
1 User(s) are reading this topic (1 Guests and 0 Anonymous Users)
0 Members:

 



- Lo-Fi Version Support form
Copyrights and abuse reports form
Time is now: 2nd December 2022 - 10:01:24