Welcome Guest ( Log In | Register )

> И неформату есть предел.

Рэп/хип-хоп/шансон/поп удаляются. Для них есть свои порталы.

> Sühne Mensch - Schmerzportrait (2022), Minimal Industrial/Angst Pop
post Nov 26 2022, 10:36:23
Post #1

Три Литра
***
Group: Завсегдатай
Posts: 229
Releases: 0
On Forums: 6 months 8 hours
Thanks: 502 time(s)
Russian Federation


(IMG:http://metalarea.org/images/audiocovers/2022_Nov/acov_tid372949_thumb.jpg)

*Artist: Sühne Mensch
*Album: Schmerzportrait
*Year: 2022
*Genre: Minimal Industrial/Angst Pop
*Country: Germany (IMG:http://metalarea.org/forum/style_images/flags/Germany.png)
*Format: mp3@CBR320kbps
*Size: 90MB

Tracklist:
1. Anklang 1:42
2. Ein Herz Im Käfig 4:30
3. Für Alle Sterbenden 4:15
4. Schwarzes Rauschen 4:28
5. Zeit 4:22
6. Kein Quantum An Milde 3:54
7. Ich 3:58
8. Komatöse Schönheit 4:21
9. Tränenleer 4:21
10. Seltsamkeit Des Himmels 3:39
******************************
Total playing time: 39:30

(IMG:http://metalarea.org/images/youtube.png)

Extended info
Sühne Mensch has no musical past history. This is seldom in times when a trace is left behind early, even if it is merely digital. But this debut album is in no way the work of a beginner. The brain behind Sühne Mensch has collected many experiences even if primarily from other musical fields. Now he impressively channels all his knowledge into this very different music. Schmerzportrait is incredibly rounded and mature, complex yet compact, fitting in perfectly with the Galakthorrö style, but possesses its own individual quality. Schmerzportrait is painful for the Artist himself, because this portrait reveals much, and therefore leaves him vulnerable. For ourselves, the listeners, it is not painful, for we are enjoying the morbid sound from seething analogue synths, driving rhythms, Angst melodies and virtuoso hiss+noise – the foundation with which the distorted, German vocals melt into a perfect unity. A spectacular first work.
2022. Galakthorrö


Technical info
(IMG:http://metalarea.org/images/spectrogram/2022_Nov/744bc16af65d1f978e5d9e71be35068e.png)
Input File: 02. Ein Herz Im Käfig.mp3
Channels : 2
Sample Rate : 44100
Precision : 16-bit
Duration : 00:04:30.07 = 11910175 samples = 20255.4 CDDA sectors
File Size : 11.0M
Bit Rate : 326k
Sample Encoding: MPEG audio (layer I, II or III)
Comments :
Title=Ein Herz Im Käfig
Artist=Sühne Mensch
Album=Schmerzportrait
Tracknumber=02
Year=2022
Genre=Industrial/Angst Pop



Register


Go to the top of the page
  Insert nick Quick quote
+Quote Post
 
Start new topic
Replies (1 - 4)
post Nov 27 2022, 05:54:03
Post #2

пустое и необозримое
**************
Group: Металариец
Posts: 6,077
Releases: 0
On Forums: 7 years 6 days
Thanks: 3818 time(s)
Antarctica


ЦИТАТА(greyhound @ 26th November 2022 - 14:36:23) *
Minimal Industrial/Angst Pop

(IMG:style_emoticons/default/20.gif)
Go to the top of the page
  Insert nick Quick quote
+Quote Post
post Nov 29 2022, 12:11:26
Post #3

0%Tolerance
**************
Group: Металариец
Posts: 2,410
Releases: 0
On Forums: 10 years 4 months
Thanks: 481 time(s)
Unknown


Можно послушать.
Go to the top of the page
  Insert nick Quick quote
+Quote Post
post Dec 1 2022, 08:06:50
Post #4

Маньяк
**********
Group: Металариец
Posts: 1,492
Releases: 73
From: Санкт-Петербург
On Forums: 16 years 8 months
Thanks: 3835 time(s)
Russian Federation


Понравилось, хороший дебют. К тому же, подобной музыки в принципе немного, поэтому ценно вдвойне.
Go to the top of the page
  Insert nick Quick quote
+Quote Post
post Dec 11 2022, 07:13:08
Post #5

Литр
*
Group: Подсевший
Posts: 98
Releases: 0
On Forums: 3 years 5 months
Thanks: 40 time(s)
Russian Federation


Нормальная тема.
Такого практически не слушаю, поэтому из ассоциаций только Bad Sector.
А ещё одна из песен напомнила тиаматовскую The Desolate One с альбома 1997 года.
Go to the top of the page
  Insert nick Quick quote
+Quote Post

Reply to this topicStart new topic
1 User(s) are reading this topic (1 Guests and 0 Anonymous Users)
0 Members:

 



- Lo-Fi Version Support form
Copyrights and abuse reports form
Time is now: 5th February 2023 - 06:35:16