Welcome Guest ( Log In | Register )

> И неформату есть предел.

Рэп/хип-хоп/шансон/поп удаляются. Для них есть свои порталы.

 
Reply to this topicStart new topic
> Pale Sketcher - Golden Skin (2022), Electronic/Breakbeat/Shoegaze
post Nov 27 2022, 10:20:41
Post #1

Маньяк
**********
Group: Металариец
Posts: 1,492
Releases: 73
From: Санкт-Петербург
On Forums: 16 years 8 months
Thanks: 3835 time(s)
Russian Federation


(IMG:http://metalarea.org/images/audiocovers/2022_Nov/acov_tid372983_thumb.jpg)

*Artist: Pale Sketcher
*Album: Golden Skin
*Year: 2022
*Genre: Electronic/Breakbeat/Shoegaze
*Country: United Kingdom (IMG:http://metalarea.org/forum/style_images/flags/United%20Kingdom.png)
*Format: mp3@CBR320kbps
*Size: 103MB

Tracklist:
01. Today 06:04
02. A Joy Only We Know 04:19
03. Have Faith 05:48
04. Heart Beat 04:45
05. I'm Your Possession 06:41
06. Golden Skin 06:43
07. Rollercoaster 04:39
08. Hymn For Light 06:14
******************************
Total playing time: 45:13



Extended info
Новый альбом от одного из многочисленных проектов неугомонного Джастина Броадрика, реанимированного после многолетней паузы. Cильно отличается от его остального творчества.


Technical info
(IMG:http://metalarea.org/images/spectrogram/2022_Nov/4d67ee67935b6285804fbe3bc76dbd87.png)
Input File: 01 - Today.mp3
Channels : 2
Sample Rate : 44100
Precision : 16-bit
Duration : 00:06:04.43 = 16071407 samples = 27332.3 CDDA sectors
File Size : 14.6M
Bit Rate : 320k
Sample Encoding: MPEG audio (layer I, II or III)
Comments :
Title=Today
Artist=Pale Sketcher
Album=Golden Skin
Tracknumber=01
Year=2022
Genre=Electronic/Breakbeat/Shoegaze



Register


Go to the top of the page
  Insert nick Quick quote
+Quote Post

Reply to this topicStart new topic
1 User(s) are reading this topic (1 Guests and 0 Anonymous Users)
0 Members:

 



- Lo-Fi Version Support form
Copyrights and abuse reports form
Time is now: 5th February 2023 - 05:13:07