Welcome Guest ( Log In | Register )

> И неформату есть предел.

Рэп/хип-хоп/шансон/поп удаляются. Для них есть свои порталы.

 
Reply to this topicStart new topic
> Rumble Young Man Rumble - Origins (2022), Instrumental Post-Rock/Metal
post Nov 30 2022, 19:57:17
Post #1

Шесть Литров
******
Group: Металариец
Posts: 583
Releases: 10
From: минск сити
On Forums: 13 years 7 months
Thanks: 913 time(s)
Belarus


(IMG:http://metalarea.org/images/audiocovers/2022_Nov/acov_tid373117_thumb.jpg)

*Artist: Rumble Young Man Rumble
*Album: Origins
*Year: 2022
*Genre: Instrumental Post-Rock/Metal
*Country: United States (IMG:http://metalarea.org/forum/style_images/flags/United%20States.png)
*Format: mp3@CBR320kbps
*Size: 95MB

Tracklist:
1. Sandcrawler 08:52
2. Aether I 02:26
3. The Brilliant Architect 08:52
4. Aether II 03:22
5. Last Echoes of the Sun 06:19
6. Take to the Oars 07:16
7. Aether III 03:54
******************************
Total playing time: 41:01



Extended info
Rumble Young Man Rumble (RYMR) is an instrumental Post-Rock band based in Denver, Colorado.


Technical info
(IMG:http://metalarea.org/images/spectrogram/2022_Nov/f7ed848665f7cd89fbe1c0eb6c49beeb.png)
Input File: Rumble Young Man Rumble - The Brilliant Architect.mp3
Channels : 2
Sample Rate : 44100
Precision : 16-bit
Duration : 00:00:00.53 = 23461 samples = 39.8997 CDDA sectors
File Size : 21.6M
Bit Rate : 324M
Sample Encoding: MPEG audio (layer I, II or III)
Comments :
Title=The Brilliant Architect
Artist=Rumble Young Man Rumble
Album=Origins
Tracknumber=3/7
Year=2022
Genre=Rock
Discnumber=1/1



Register
Go to the top of the page
  Insert nick Quick quote
+Quote Post

Reply to this topicStart new topic
1 User(s) are reading this topic (1 Guests and 0 Anonymous Users)
0 Members:

 



- Lo-Fi Version Support form
Copyrights and abuse reports form
Time is now: 5th February 2023 - 04:47:17