Welcome Guest ( Log In | Register )

> И неформату есть предел.

Рэп/хип-хоп/шансон/поп удаляются. Для них есть свои порталы.

 
Reply to this topicStart new topic
> Gravel Shores - Rat Or Angel - Voïvod Acoustic Tribute (2019), Acoustic
post Dec 1 2022, 17:07:35
Post #1

Маньяк
**********
Group: Металариец
Posts: 1,492
Releases: 73
From: Санкт-Петербург
On Forums: 16 years 8 months
Thanks: 3835 time(s)
Russian Federation


(IMG:http://metalarea.org/images/audiocovers/2022_Dec/acov_tid373178_thumb.jpg)

*Artist: Gravel Shores
*Album: Rat Or Angel - Voïvod Acoustic Tribute
*Year: 2019
*Genre: Acoustic
*Country: Hungary (IMG:http://metalarea.org/forum/style_images/flags/Hungary.png)
*Format: mp3@CBR320kbps
*Size: 98MB

Tracklist:
01. The Unknown Knows 04:34
02. Panorama 03:17
03. Clouds In My House 04:26
04. The Prow 03:08
05. Angel Rat 03:53
06. Golem 04:25
07. The Outcast 03:20
08. Freedoom 04:34
09. Moonbeam Rider 04:10
10. Le Pont Noir 05:15
******************************
Total playing time: 41:03



Technical info
(IMG:http://metalarea.org/images/spectrogram/2022_Dec/8ff45aef14e77b238e01f09e8241c30e.png)
Input File: 01 - The Unknown Knows.mp3
Channels : 2
Sample Rate : 44100
Precision : 16-bit
Duration : 00:04:34.33 = 12097953 samples = 20574.8 CDDA sectors
File Size : 11.1M
Bit Rate : 324k
Sample Encoding: MPEG audio (layer I, II or III)
Comments :
Title=The Unknown Knows
Artist=Gravel Shores
Album=Rat Or Angel - Voïvod Acoustic Tribute
Tracknumber=01
Year=2019
Genre=Acoustic



Register
Go to the top of the page
  Insert nick Quick quote
+Quote Post

Reply to this topicStart new topic
1 User(s) are reading this topic (1 Guests and 0 Anonymous Users)
0 Members:

 



- Lo-Fi Version Support form
Copyrights and abuse reports form
Time is now: 5th February 2023 - 06:09:22