Welcome Guest ( Log In | Register )

> И неформату есть предел.

Рэп/хип-хоп/шансон/поп удаляются. Для них есть свои порталы.

> Andaja - Atvaras (2017), Folk Rock
post Dec 4 2022, 12:05:10
Post #1

Маньяк
**********
Group: Металариец
Posts: 1,024
Releases: 49
From: Ивантеевка, Московская область
On Forums: 15 years 1 month
Thanks: 1111 time(s)
Russian Federation


(IMG:https://metalarea.org/images/audiocovers/2022_Dec/acov_tid373347_thumb.jpg)

*Artist: Andaja
*Album: Atvaras
*Year: 2017
*Genre: Folk Rock
*Country: Lithuania (IMG:https://metalarea.org/forum/style_images/flags/Lithuania.png)
*Format: mp3@CBR320kbps
*Size: 110MB

Tracklist:
01. Atvaras 05:25
02. Saulės Rauda 07:21
03. Varnas 05:08
04. Perkūno Kariauna 06:29
05. Kovai 06:08
06. Užkalbėjimas Gyvatai 06:19
07. Maumas 05:17
08. Ugnies Pataluos 06:12
******************************
Total playing time: 48:19



Technical info
(IMG:https://metalarea.org/images/spectrogram/2022_Dec/f35774b1d20ce20b929f54408ce37a64.png)
Input File: 04. Perkūno Kariauna.mp3
Channels : 2
Sample Rate : 44100
Precision : 16-bit
Duration : 00:06:29.95 = 17196839 samples = 29246.3 CDDA sectors
File Size : 15.7M
Bit Rate : 321k
Sample Encoding: MPEG audio (layer I, II or III)
Comments :
Title=Perkūno Kariauna
Artist=Andaja
Album=Atvaras
Tracknumber=04
Year=2017
Genre=Folk Rock



Register


Go to the top of the page
  Insert nick Quick quote
+Quote Post
 
Start new topic
Replies (1 - 1)
post Jan 7 2023, 00:01:07
Post #2

Два Литра
**
Group: Завсегдатай
Posts: 199
Releases: 0
From: Чуркестан
On Forums: 15 years 5 months
Thanks: 19 time(s)
Zimbabwe


Весьма сильный, даже прог метал, я б сказал.
Go to the top of the page
  Insert nick Quick quote
+Quote Post

Reply to this topicStart new topic
1 User(s) are reading this topic (1 Guests and 0 Anonymous Users)
0 Members:

 



- Lo-Fi Version Support form
Copyrights and abuse reports form
Time is now: 5th February 2023 - 04:55:56