Welcome Guest ( Log In | Register )

> И неформату есть предел.

Рэп/хип-хоп/шансон/поп удаляются. Для них есть свои порталы.

> Those Poor Bastards - Evil Seeds (2019), Gothic Country (D14)
post Jan 21 2023, 12:47:05
Post #1

Сволочь обыкновенная
**************
Group: Металариец
Posts: 3,149
Releases: 218
From: Брест
On Forums: 14 years 9 months
Thanks: 5394 time(s)
Belarus


(IMG:https://metalarea.org/images/audiocovers/2023_Jan/acov_tid375446_thumb.jpg)

*Artist: Those Poor Bastards
*Album: Evil Seeds
*Year: 2019
*Genre: Gothic Country
*Country: United States (IMG:https://metalarea.org/forum/style_images/flags/United%20States.png)
*Format: mp3@CBR320kbps
*Size: 94MB

Tracklist:
01. One of Us 02:23
02. Something Evil 03:30
03. Every Lonesome Song 03:38
04. Just Tonight 02:36
05. Avalanche, You Killed Me 02:40
06. Heaven's Too Far 02:59
07. Wake up in the Gutter 03:03
08. So Ashamed 03:23
09. Neglected Wife 04:57
10. Sick Sick 03:08
11. Pay the Viper 03:54
******************************
Total playing time: 36:11

Extended info
For one hellish month in the dead of winter, Those Poor Bastards barricaded themselves in the basement of a 1930's schoolhouse to see what horrors they could conjure when completely cut off from the corrupting influence of the modern world. The result is their tenth, an perhaps most cohesive album, “Evil Seeds.”

These songs feature classic themes of violent struggle and loss with bizarre overtones of supernatural menace and dread. Scream along with eleven all new pessimistic sermons for the end of times.
credits
released November 15, 2019

Some LP scans included
Альбом отличный.


Technical info
(IMG:https://metalarea.org/images/spectrogram/2023_Jan/23c1c3035683599bdde88ed74894ca48.png)
Input File: 01 - One of Us.mp3
Channels : 2
Sample Rate : 44100
Precision : 16-bit
Duration : 00:02:23.82 = 6342242 samples = 10786.1 CDDA sectors
File Size : 6.22M
Bit Rate : 346k
Sample Encoding: MPEG audio (layer I, II or III)
Comments :
Title=One of Us
Artist=Those Poor Bastards
Album=Evil Seeds
Tracknumber=1
Year=2019
Genre=Alternative Indie Rock Metal
Discnumber=1



Register


Thanks:
Go to the top of the page
  Insert nick Quick quote
+Quote Post
 
Start new topic
Replies (1 - 1)
post Jan 23 2023, 19:41:42
Post #2

the ubspeakable
**********
Group: Металариец
Posts: 1,382
Releases: 37
From: Pietari
On Forums: 17 years 1 month
Thanks: 2250 time(s)
Russian Federation


Go to the top of the page
  Insert nick Quick quote
+Quote Post

Reply to this topicStart new topic
1 User(s) are reading this topic (1 Guests and 0 Anonymous Users)
0 Members:

 



- Lo-Fi Version Support form
Copyrights and abuse reports form
Time is now: 5th February 2023 - 06:14:51