Welcome Guest ( Log In | Register )

> Releases Upload / Добавление релизов

Добавить релиз тут / Click here to add release
Рекомендованные обменники / Recommended file shares

> Sodality - Benediction — Part 1 (2023), Black Metal
post Jan 22 2023, 21:28:40
Post #1

 
Group Icon
Group: V.I.P
Posts: 2,114
Releases: 182
On Forums: 16 years 4 months
Thanks: 19544 time(s)
Unknown


(IMG:https://metalarea.org/images/audiocovers/2023_Jan/acov_tid375567_thumb.jpg)

*Artist: Sodality
*Album: Benediction — Part 1
*Year: 2023
*Genre: Black Metal
*Country: Poland (IMG:https://metalarea.org/forum/style_images/flags/Poland.png)
*Format: mp3@CBR320kbps
*Size: 88MB

Tracklist:
1. Possession 10:26
2. Rapture 08:57
3. The Nativity aka Heathen Angel 10:20
4. With Faithful Voice I Make My Supplication 07:54
******************************
Total playing time: 37:37



Extended info
Norma Evangelium Diaboli, January 20th.
FLAC-rip.

Line-up:
T. Kaos — All instruments (Lvcifyre, Death like Mass, ex-Hödur, ex-Sons of Serpent, ex-Adorior)
Mark of the Devil — Vocals (Cultes des Ghoules, Death like Mass)


Technical info
(IMG:https://metalarea.org/images/spectrogram/2023_Jan/1ee389ee80bf646fb34ccd2b2a7291b1.png)
Input File: 01 - Possession.mp3
Channels : 2
Sample Rate : 44100
Precision : 16-bit
Duration : 00:10:26.90 = 27646202 samples = 47017.4 CDDA sectors
File Size : 25.1M
Bit Rate : 320k
Sample Encoding: MPEG audio (layer I, II or III)
Comments :
Title=Possession
Artist=Sodality
Album=Benediction Part 1
Tracknumber=1/4
Year=2023
Genre=Black Metal
Discnumber=1/1



Register

Register


Go to the top of the page
  Insert nick Quick quote
+Quote Post
 
Start new topic
Replies (1 - 5)
post Jan 24 2023, 18:29:33
Post #2

Common dweller of hell
**************
Group: Металариец
Posts: 4,595
Releases: 12
From: Dnipro
On Forums: 14 years 6 months
Thanks: 1826 time(s)
Ukraine


Очень по стилю похоже на экспериментальный black metal
Go to the top of the page
  Insert nick Quick quote
+Quote Post
post Jan 24 2023, 18:45:39
Post #3

Trickster
Group Icon
Group: V.I.P
Posts: 5,520
Releases: 319
On Forums: 11 years 11 months
Thanks: 14213 time(s)
Russian Federation


Пока очень нравится, но еще курить и курить этот альбом.


Thanks:
(1) Occultas,
Go to the top of the page
  Insert nick Quick quote
+Quote Post
post Jan 24 2023, 20:30:56
Post #4
BAN
Banned till
Oct 6 273792723, 20:37:06



QUOTE(RADeus @ Jan 22 2023, 21:28:40) *
https://metalarea.org/images/audiocovers/20...75567_thumb.jpg

*Artist: Sodality
*Album: Benediction — Part 1
*Year: 2023
*Genre: Black Metal
*Country: Poland https://metalarea.org/forum/style_images/flags/Poland.png
*Format: mp3@CBR320kbps
*Size: 88MB

Tracklist:
1. Possession 10:26
2. Rapture 08:57
3. The Nativity aka Heathen Angel 10:20
4. With Faithful Voice I Make My Supplication 07:54
******************************
Total playing time: 37:37



Extended info
Norma Evangelium Diaboli, January 20th.

Line-up:
T. Kaos — All instruments (Lvcifyre, Death like Mass, ex-Hödur, ex-Sons of Serpent, ex-Adorior)
Mark of the Devil — Vocals (Cultes des Ghoules, Death like Mass)


Technical info
https://metalarea.org/images/spectrogram/20...d2b2a7291b1.png
Input File: 01 - Possession.mp3
Channels : 2
Sample Rate : 44100
Precision : 16-bit
Duration : 00:10:26.90 = 27646202 samples = 47017.4 CDDA sectors
File Size : 25.1M
Bit Rate : 320k
Sample Encoding: MPEG audio (layer I, II or III)
Comments :
Title=Possession
Artist=Sodality
Album=Benediction Part 1
Tracknumber=1/4
Year=2023
Genre=Black Metal
Discnumber=1/1



That's official files or youtube rip?
Go to the top of the page
  Insert nick Quick quote
+Quote Post
post Jan 27 2023, 20:40:24
Post #5

 
Group Icon
Group: V.I.P
Posts: 2,114
Releases: 182
On Forums: 16 years 4 months
Thanks: 19544 time(s)
Unknown


По впечатлениям пока между средне и неплохо. Но январь в этом году совсем тухлый, это лучшее, что я в нём слушал.
Go to the top of the page
  Insert nick Quick quote
+Quote Post
post Jan 31 2023, 10:30:17
Post #6

Семь Литров
*******
Group: Металариец
Posts: 770
Releases: 0
From: Vilnius
On Forums: 15 years 11 months
Thanks: 275 time(s)
Lithuania


Отлично! В топ года, для фэнов Cultes Des Ghoules (если не ошибаюсь, вокалист именно оттуда)


Thanks:
(1) Occultas,
Go to the top of the page
  Insert nick Quick quote
+Quote Post

Reply to this topicStart new topic
2 User(s) are reading this topic (2 Guests and 0 Anonymous Users)
0 Members:

 



- Lo-Fi Version Support form
Copyrights and abuse reports form
Time is now: 5th February 2023 - 04:25:11