Welcome Guest ( Log In | Register )

> Releases Upload / Добавление релизов

Добавить релиз тут / Click here to add release
Рекомендованные обменники / Recommended file shares

 
Reply to this topicStart new topic
> Vengeant - Mana [ep] (2023), Progressive/Symphonic Power Metal
post Jan 24 2023, 14:38:11
Post #1

Правь статус, ####!111
**************
Group: Металариец
Posts: 4,806
Releases: 3232
On Forums: 12 years 2 months
Thanks: 58295 time(s)
Russian Federation


(IMG:https://metalarea.org/images/audiocovers/2023_Jan/acov_tid375616_thumb.jpg)

*Artist: Vengeant
*Album: Mana [ep]
*Year: 2023
*Genre: Progressive/Symphonic Power Metal
*Country: Sweden (IMG:https://metalarea.org/forum/style_images/flags/Sweden.png)
*Format: mp3@CBR320kbps
*Size: 57MB

Tracklist:
01.Angel's Battle Cry 04:56
02.The Unreal 04:36
03.Curse of the Sands 05:11
04.Avalanche of Fire 04:38
05.Gaia's Throne 05:10
******************************
Total playing time: 24:31

(IMG:https://metalarea.org/images/youtube.png)
(IMG:https://metalarea.org/images/youtube.png)

Technical info
(IMG:https://metalarea.org/images/spectrogram/2023_Jan/2dac6f50de24db83480a800f08c94451.png)
Input File: 02 - The Unreal.mp3
Channels : 2
Sample Rate : 44100
Precision : 16-bit
Duration : 00:04:36.52 = 12194708 samples = 20739.3 CDDA sectors
File Size : 11.1M
Bit Rate : 322k
Sample Encoding: MPEG audio (layer I, II or III)
Comments :
Title=The Unreal
Artist=Vengeant
Album=Mana
Tracknumber=2/5
Year=2023
Genre=Metal
Discnumber=1/1



Register


Go to the top of the page
  Insert nick Quick quote
+Quote Post

Reply to this topicStart new topic
1 User(s) are reading this topic (1 Guests and 0 Anonymous Users)
0 Members:

 



- Lo-Fi Version Support form
Copyrights and abuse reports form
Time is now: 5th February 2023 - 06:14:12