Welcome Guest ( Log In | Register )

> Releases Upload / Добавление релизов

Добавить релиз тут / Click here to add release
Рекомендованные обменники / Recommended file shares

 
Reply to this topicStart new topic
> Trayax - On The Edge Of Madness (2023), Heavy Metal
post Jan 24 2023, 14:51:13
Post #1

Правь статус, ####!111
**************
Group: Металариец
Posts: 4,804
Releases: 3232
On Forums: 12 years 2 months
Thanks: 58288 time(s)
Russian Federation


(IMG:https://metalarea.org/images/audiocovers/2023_Jan/acov_tid375617_thumb.jpg)

*Artist: Trayax
*Album: On The Edge Of Madness
*Year: 2023
*Genre: Heavy Metal
*Country: Spain (IMG:https://metalarea.org/forum/style_images/flags/Spain.png)
*Format: mp3@CBR320kbps
*Size: 74MB

Tracklist:
01.The Calm Before The Darkness 01:05
02.The Power Of The Storm 03:42
03.End Of Our Times 03:21
04.White Lines 03:50
05.Awakening Of Dragon 04:48
06.Flying Jolly Roger 03:30
07.A Tale From The North 04:22
08.Descent To Madness 03:53
09.Unisonic (Cover) 03:29
******************************
Total playing time: 32:00



Technical info
(IMG:https://metalarea.org/images/spectrogram/2023_Jan/404760985b674f03274725e5d88cfb03.png)
Input File: 03 - End Of Our Times.mp3
Channels : 2
Sample Rate : 44100
Precision : 16-bit
Duration : 00:03:21.31 = 8877903 samples = 15098.5 CDDA sectors
File Size : 8.13M
Bit Rate : 323k
Sample Encoding: MPEG audio (layer I, II or III)
Comments :
Title=End Of Our Times
Artist=Trayax
Album=On The Edge Of Madness
Tracknumber=3/9
Year=2023
Genre=Metal
Discnumber=1/1



Register


Go to the top of the page
  Insert nick Quick quote
+Quote Post

Reply to this topicStart new topic
1 User(s) are reading this topic (1 Guests and 0 Anonymous Users)
0 Members:

 



- Lo-Fi Version Support form
Copyrights and abuse reports form
Time is now: 5th February 2023 - 05:11:48