Welcome Guest ( Log In | Register )

 
Reply to this topicStart new topic
> Imperium - Demo '95 [demo] (1995), Black Metal (D26)
post Jan 24 2023, 15:41:41
Post #1

Подвал
**************
Group: Металариец
Posts: 18,406
Releases: 10515
From: Far East (Khabarovsk)
On Forums: 14 years 1 week
Thanks: 123401 time(s)
Russian Federation


(IMG:http://metalarea.org/images/audiocovers/2023_Jan/acov_tid375711_thumb.JPG)

*Artist: Imperium
*Album: Demo '95 [demo]
*Year: 1995
*Genre: Black Metal
*Country: Norway (IMG:http://metalarea.org/forum/style_images/flags/Norway.png)
*Format: mp3@CBR192kbps
*Size: 21MB

Tracklist:
1. Dommedag (Intro) 01:23
2. Den Lange Vinteren / Knights Of The Dark Moon 08:28
3. Vaerferd 03:32
4. Gademmod (Outro) 01:41
******************************
Total playing time: 15:04

Technical info
(IMG:http://metalarea.org/images/spectrogram/2023_Jan/7b26ef23efc636534880d1546e796308.png)
Input File: 03-Vaerferd.mp3
Channels : 2
Sample Rate : 44100
Precision : 16-bit
Duration : 00:03:32.52 = 9372000 samples = 15938.8 CDDA sectors
File Size : 5.10M
Bit Rate : 192k
Sample Encoding: MPEG audio (layer I, II or III)
Comments :
Title=Vaerferd
Artist=Imperium (Nor)
Album=Demo '95
Tracknumber=03
Year=1995
Genre=Black Metal



Register


Go to the top of the page
  Insert nick Quick quote
+Quote Post

Reply to this topicStart new topic
1 User(s) are reading this topic (1 Guests and 0 Anonymous Users)
0 Members:

 



- Lo-Fi Version Support form
Copyrights and abuse reports form
Time is now: 3rd February 2023 - 11:00:26