Welcome Guest ( Log In | Register )

 
Reply to this topicStart new topic
> Fractures In The Sky - Covers Volume 1 (2020), Instrumental/Progressive Metal
post Jan 24 2023, 16:42:44
Post #1

Serial Uploader
Group Icon
Group: V.I.P
Posts: 39,948
Releases: 38060
From: Lithuania
On Forums: 14 years 9 months
Thanks: 478897 time(s)
Lithuania


(IMG:https://metalarea.org/images/audiocovers/2023_Jan/acov_tid375723_thumb.jpg)

*Artist: Fractures In The Sky
*Album: Covers Volume 1
*Year: 2020
*Genre: Instrumental/Progressive Metal
*Country: United Kingdom (IMG:https://metalarea.org/forum/style_images/flags/United%20Kingdom.png)
*Format: mp3@CBR320kbps
*Size: 84MB

Tracklist:
1. Dragonborn 05:08
2. Megalovania 03:29
3. Doom/Quake II Medley 03:40
4. Fallout 4 Main Theme 02:48
5. Pokemon Battle Trainer Music 03:03
6. Damned 02:59
7. The Legend of Zelda Main Theme 02:54
8. In the House, in a Heartbeat 04:15
9. Hello Zepp (Saw Theme) 02:44
10. Halloween Theme 02:59
11. The Imperial March 03:10
******************************
Total playing time: 37:09


Preview 2
(IMG:https://metalarea.org/images/youtube.png)

Extended info
Exclusive for Metalarea.org


Technical info
(IMG:https://metalarea.org/images/spectrogram/2023_Jan/a9c22d285930122476e18847237f1248.png)
Input File: 02. Megalovania.mp3
Channels : 2
Sample Rate : 44100
Precision : 16-bit
Duration : 00:03:29.07 = 9219943 samples = 15680.2 CDDA sectors
File Size : 8.37M
Bit Rate : 320k
Sample Encoding: MPEG audio (layer I, II or III)
Comments :
Title=Megalovania
Artist=Fractures in the Sky
Album=Covers Volume 1
Tracknumber=2
Year=2020



Register


Go to the top of the page
  Insert nick Quick quote
+Quote Post

Reply to this topicStart new topic
1 User(s) are reading this topic (1 Guests and 0 Anonymous Users)
0 Members:

 



- Lo-Fi Version Support form
Copyrights and abuse reports form
Time is now: 29th March 2023 - 08:48:58