Welcome Guest ( Log In | Register )

> Releases Upload / Добавление релизов

Добавить релиз тут / Click here to add release
Рекомендованные обменники / Recommended file shares

 
Reply to this topicStart new topic
> Fractures In The Sky - Reign [single] (2020), Instrumental/Progressive Metal (D5)
post Jan 24 2023, 16:51:39
Post #1

Serial Uploader
Group Icon
Group: V.I.P
Posts: 39,559
Releases: 37683
From: Lithuania
On Forums: 14 years 7 months
Thanks: 474225 time(s)
Lithuania


(IMG:https://metalarea.org/images/audiocovers/2023_Jan/acov_tid375724_thumb.jpg)

*Artist: Fractures In The Sky
*Album: Reign [single]
*Year: 2020
*Genre: Instrumental/Progressive Metal
*Country: United Kingdom (IMG:https://metalarea.org/forum/style_images/flags/United%20Kingdom.png)
*Format: mp3@CBR320kbps
*Size: 14MB

Tracklist:
1. On the Horizon 02:46
2. Reign (Feat. James Phillips) 03:14
******************************
Total playing time: 6:00


Preview 2

(IMG:https://metalarea.org/images/youtube.png)

Extended info
Exclusive for Metalarea.org


Technical info
(IMG:https://metalarea.org/images/spectrogram/2023_Jan/e07b485ef6d167cd26ab66cac5fb05d8.png)
Input File: 01. On the Horizon.mp3
Channels : 2
Sample Rate : 44100
Precision : 16-bit
Duration : 00:02:46.75 = 7353587 samples = 12506.1 CDDA sectors
File Size : 6.71M
Bit Rate : 322k
Sample Encoding: MPEG audio (layer I, II or III)
Comments :
Title=On the Horizon
Artist=Fractures in the Sky
Album=Reign
Tracknumber=1
Year=2020



Register


Go to the top of the page
  Insert nick Quick quote
+Quote Post

Reply to this topicStart new topic
1 User(s) are reading this topic (1 Guests and 0 Anonymous Users)
0 Members:

 



- Lo-Fi Version Support form
Copyrights and abuse reports form
Time is now: 5th February 2023 - 04:46:30