Welcome Guest ( Log In | Register )

> Releases Upload / Добавление релизов

Добавить релиз тут / Click here to add release
Рекомендованные обменники / Recommended file shares

 
Reply to this topicStart new topic
> The Angelic Process - We All Die Laughing [compilation] (2017), Drone/Doom/Post-Metal/Shoegaze (D)
post Jan 24 2023, 20:34:06
Post #1

Маньяк
**********
Group: Металариец
Posts: 1,492
Releases: 73
From: Санкт-Петербург
On Forums: 16 years 8 months
Thanks: 3835 time(s)
Russian Federation


(IMG:http://metalarea.org/images/audiocovers/2023_Jan/acov_tid375729_thumb.jpg)

*Artist: The Angelic Process
*Album: We All Die Laughing [compilation]
*Year: 2017
*Genre: Drone/Doom/Post-Metal/Shoegaze
*Country: United States (IMG:http://metalarea.org/forum/style_images/flags/United%20States.png)
*Format: mp3@CBR320kbps
*Size: 581MB

Tracklist:
2001 ...And Your Blood Is Full Of Honey
01. Welcome To Oblivion 06:07
02. Mouvement - Humble Man 01:29
03. Worried Man 04:41
04. ...And Your Blood Is Full Of Honey 04:20
05. Mouvement - The Body In It's Space 01:03
06. The Ruined Life Of Someone Better 08:50
07. Hang Him Higher 04:27
08. Cages Of Blood And Bone 04:36
2003 Coma Waering
09. My Blood Still Whispers 04:27
10. The Sun In Braids 04:46
11. Mouvement - The Flesh Is Weak 01:59
12. Crippled Healing 06:58
13. Coma Waering 09:19
14. Mouvement - The Rest Of The World 02:25
15. Rid The Past By Dying 07:06
16. Mouvement - Shielded By Death 03:58
2006 Sigh (EP)
17. Sigh 10:15
18. Trance To The Sun 06:49
19. Mouvement With Mountains Of Blood 01:12
20. The Black Ark 05:37
2006 We All Die Laughing
21. We All Die Laughing 05:59
22. Bleedbeliever 05:16
23. Mouvement - Soleil Et Noir 01:04
24. The Resonance Of Goodbye 05:13
25. How To Build A Time Machine 05:34
26. Mouvement - Every City Is A Prison 02:33
2007 Weighing Souls With Sand
27. The Promise Of Snakes 09:32
28. Million Year Summer 03:52
29. The Resonance Of Goodbye 05:15
30. We All Die Laughing 06:05
31. Dying In A-Minor 08:20
32. Weighing Souls With Sand 05:20
33. Mouvement - World Deafening Eclipse 02:00
34. Burning In The Undertow 06:47
35. Mouvement - The Smoke Of Her Burning 04:16
36. How To Built A Time Machine 05:45
37. Sleepwritten (vinyl bonus track) 10:54
2003 Solipsistic
38. Mouvement - Prepare To Evacuate Soul 00:38
39. Solipsistic 05:50
40. Deep Calls To Deep 06:37
41. Tragedy De' Ovair 06:48
42. Mouvement - Sympathy Interrupts My Blood 01:23
43. My Blood Still Whispers 01:27
44. Dismembered Antonella 07:09
45. Mouvement - Crippled Healing 03:22
46. Missing The Space Around You 06:43
47. Nothing But Self Exists 03:59
48. Mouvement - Solipsistic Darkness 00:36
49. Consciousness (Showered In Afterwhile) 03:47
50. Self Portrait In Water 08:41
******************************
Total playing time: 4:11:10



Extended info
Переиздание полной дискографии группы


Technical info
(IMG:http://metalarea.org/images/spectrogram/2023_Jan/131650e2324d7eb3c1475dd79a44fd11.png)
Input File: 01 - Welcome To Oblivion.mp3
Channels : 2
Sample Rate : 44100
Precision : 16-bit
Duration : 00:06:06.63 = 16168163 samples = 27496.9 CDDA sectors
File Size : 14.8M
Bit Rate : 323k
Sample Encoding: MPEG audio (layer I, II or III)
Comments :
Title=Welcome To Oblivion
Artist=The Angelic Process
Album=We All Die Laughing / 2001 "...And Your Blood Is Full Of Honey"
Tracknumber=01
Year=2017
Genre=Drone/Doom/Post-Metal/Shoegaze



Register


Go to the top of the page
  Insert nick Quick quote
+Quote Post

Reply to this topicStart new topic
1 User(s) are reading this topic (1 Guests and 0 Anonymous Users)
0 Members:

 



- Lo-Fi Version Support form
Copyrights and abuse reports form
Time is now: 5th February 2023 - 06:28:19