Welcome Guest ( Log In | Register )

> Thormenthor & Extreme Unction & Bowelrot & Moonspell & Silent Scream - Mortuary Vol. 1 [split] (1993), Death Metal | Doom Metal | Death Metal | Folk Metal | Thrash Metal
post Aug 22 2008, 09:37:58
Post #1

Маньяк
**********
Group: Металариец
Posts: 1,106
Releases: 900
On Forums: 11 years 9 months
Thanks: 7142 time(s)
United States


(IMG:http://metalarea.org/images/audiocovers/2012_Aug/acov_uid102610_f37e89ab87e5fcf54e2d7de49af0e5dc_thumb.jpg)

*Artist: Thormenthor & Extreme Unction & Bowelrot & Moonspell & Silent Scream
*Album: Mortuary Vol. 1 [split]
*Year: 1993
*Genre: Progressive Death Metal | Black/Doom Metal | Death Metal/Grind | Folk/Black Metal | Thrash Metal
*Country: Portugal (IMG:http://metalarea.org/forum/style_images/flags/Portugal.png) | Portugal (IMG:http://metalarea.org/forum/style_images/flags/Portugal.png) | Portugal (IMG:http://metalarea.org/forum/style_images/flags/Portugal.png) | Portugal (IMG:http://metalarea.org/forum/style_images/flags/Portugal.png) | Portugal (IMG:http://metalarea.org/forum/style_images/flags/Portugal.png)
*Format: mp3@VBR200kbps
*Size: 108MB

Tracklist:
Thormenthor:
1. Absorbed (Prival Thoughts on a Pale Dawn) 7:15
2. The Abrupt Nature/Dissolved in Absurd 10:01
3. Pulverising 5:06
4. Fragments of Existence (Within Despair) 6:16
Extreme Unction:
5. Insane Procreation 5:28
Bowelrot:
6. Excretory Urography 0:39
7. Smigelta Dysenteriae 4:36
8. Of a Parturition 3:43
9. Idiopathic Thromboeytopenic Purpura 4:39
10. Anatomicarom... Theatric Carneolatrous Encyclopaedy 2:09
11. Fatal Impaction 3:34
12. Acute Mesonteric Lymphadenitis 2:11
13. A Sentimental Coronach 2:27
Moonspell:
14. Intro 1:12
15. Goat on Fire 5:37
Silent Scream:
16. Through My Mind 4:37
17. No More Silence 4:00
******************************
Total playing time: 1:13:30

Extended info
LAME 3.92 (s)

Register

Extended info (by Redesecretor)


(IMG:http://metalarea.org/images/spectrogram/2013_Mar/8c59dc9b6a770dcab79b10a7d4b8b009.png)
Input File: 14-Moonspell _ Intro.mp3
Channels : 2
Sample Rate : 44100
Precision : 16-bit
Duration : 00:01:11.80 = 3166380 samples = 5385 CDDA sectors
File Size : 2.88M
Bit Rate : 321k
Sample Encoding: MPEG audio (layer I, II or III)
Comments :
Title=Moonspell / Intro
Artist=Mortuary vol. 1
Album=Various Artists
Tracknumber=14
Year=1993
Genre=Death Metal


Register


Go to the top of the page
  Insert nick Quick quote
+Quote Post
 
Start new topic
Replies (1 - 4)
post Aug 22 2008, 12:25:50
Post #2

funeral doom fan
Group Icon
Group: S-moderation team
Posts: 4,758
Releases: 2452
From: Ростов-на-Дону
On Forums: 13 years 3 months
Thanks: 46011 time(s)
Russian Federation


great split!
thanks. (IMG:style_emoticons/default/smile1.gif)
Go to the top of the page
  Insert nick Quick quote
+Quote Post
post Jun 29 2011, 19:30:25
Post #3

-Thy otyknesS-
**********
Group: Металариец
Posts: 1,280
Releases: 20
From: Mexico
On Forums: 11 years 10 months
Thanks: 137 time(s)
Mexico


thanks a lot man (IMG:style_emoticons/default/smile3.gif)
Go to the top of the page
  Insert nick Quick quote
+Quote Post
post Mar 3 2013, 10:34:49
Post #4

satanath@mail.ru
Group Icon
Group: Moderation team
Posts: 5,933
Releases: 644
From: Satan-Petersburg
On Forums: 8 years 5 months
Thanks: 14932 time(s)
Russian Federation


Added links by Redesecretor


Thanks:
(1) t0ffik,
Go to the top of the page
  Insert nick Quick quote
+Quote Post
post Apr 2 2017, 21:25:58
Post #5

Going home. Flying high.
**************
Group: Металариец
Posts: 12,742
Releases: 0
From: The Land of Shadows
On Forums: 12 years 8 months
Thanks: 19360 time(s)
Russian Federation


from the web
Register

и, кстати, mediafire от Redesecretor'a до сих пор жив! (IMG:style_emoticons/default/pray.gif)


Go to the top of the page
  Insert nick Quick quote
+Quote Post

Reply to this topicStart new topic
1 User(s) are reading this topic (1 Guests and 0 Anonymous Users)
0 Members:

 



- Lo-Fi Version Support form
Copyrights and abuse reports form
Time is now: 20th April 2019 - 21:36:29