Help - Search - Members - Calendar
Full Version: Formloff - Spyhorelandet (2012)
Metal Area - Extreme Music Portal > Releases Area / Релизы > Archive
necroscum


*Artist: Formloff
*Album: Spyhorelandet
*Year: 2012
*Genre: Avant-garde Black Metal
*Country: Norway
*Format: mp3@VBR267kbps
*Size: 102MB

Tracklist:
01. Det Dritet Som Renner Ut I Ua 07:17
02. Harde Ord På Kammerset 06:09
03. Spyhorelandet 07:09
04. Faen! 03:43
05. Mig Og Drit 05:22
06. Skævven 05:23
07. Kon-Tiki Museet Brenner 05:54
08. Den Gamle Jorda 05:05
09. Drokkne I Ei Flo Ta Åske 07:22
******************************
Total playing time: 53:24



Extended info


Input File: 02-formloff-harde_ord_paa_kammerset-berc.mp3
Channels : 2
Sample Rate : 44100
Precision : 16-bit
Duration : 00:06:09.16 = 16280044 samples = 27687.1 CDDA sectors
File Size : 12.6M
Bit Rate : 273k
Sample Encoding: MPEG audio (layer I, II or III)
Comments :
Title=Harde Ord PГҐ Kammerset
Artist=Formloff
Album=Spyhorelandet
Tracknumber=2/9
Year=2012
Genre=Black Metal



[ Hidden Text ]
norfin
Ничего для себя не нашёл. Унылый какой-то авангардизм...
RUSP73
А чего-йто архивы про какой-то Melodic Death/Progressive Metal/Rock вещают??Вроде совсем непохоже.Тока,если предыдущие года...
Dmitry1977
Как то Nico в молоко попал с этим релизом. Germ мне понравился гораздо больше.
jugenetooms
Согласен с г-ном norfin, релиз вышел уныловат.
Все присущие авангарду фишульки - и ломаный ритм и заигрывания с другими стилями и саксофоны с вувузелами все есть - души нет. Пусто. Просто поток звуков не более того, напоминающий конфету со вкусом безвкусного. Как пуговица. Я слушал два раза и к чести признать да есть кое какие интересные моменты, но они тонут в общей пустоте материала.
cesar
ЦИТАТА(jugenetooms @ Apr 17 2012, 21:01:04) *
...есть кое какие интересные моменты, но они тонут в общей пустоте материала.

Причём я бы не сказал, что интересных моментов совсем уж мало, однако зажаты они так, что воспринимаются как бы отдельно.
А общее впечатление создаётся, что релиз неинтересен.

Хотя, думаю, что ещё вернусь позже к этому альбому.
lestllk
[ Hidden Text ]
mp3@CBR320kbps

http://records.eisenton.de/album/spyhorelandet
This is a "lo-fi" version of our main content. To view the full version with more information, formatting and images, please click here.
Invision Power Board © 2001-2014 Invision Power Services, Inc.