Help - Search - Members - Calendar
Full Version: Domo - Domo (2011)
Metal Area - Extreme Music Portal > Releases Area / Релизы > New Releases > Unformat R:
Tunez


*Artist: Domo
*Album: Domo
*Year: 2011
*Genre: Instrumental Psychedelic/Space/Stoner/Post-Rock
*Country: Spain
*Format: mp3@CBR320kbps
*Size: 140MB

Tracklist:
1. Nadi 06:30
2. Prana 11:57
3. Asura 08:52
4. Pretas 03:12
5. Yamantaka 08:27
6. Eta Carinae 01:59
7. Samsara 24:03
******************************
Total playing time: 1:05:00




Extended info



Input File: 06- Eta Carinae.mp3
Channels : 2
Sample Rate : 44100
Precision : 16-bit
Duration : 00:01:59.55 = 5272155 samples = 8966.25 CDDA sectors
File Size : 4.91M
Bit Rate : 329k
Sample Encoding: MPEG audio (layer I, II or III)
Comments :
Title=06- Eta Carinae
Artist=Domo
Album=Domo
Tracknumber=6
Year=2011
Genre=Other



[ Hidden Text ]
mechanik
этих испанцев в открытый космос! bye.gif
Leshiy666
Альбом вышка!!
P.S. Не так давно, перед НГ, у этих космо-психоделик испанцев вышел второй полноформат, он так же весьма хорош, рекомендую к ознакомлению!! m0114.gif m1234.gif 20.gif





This is a "lo-fi" version of our main content. To view the full version with more information, formatting and images, please click here.
Invision Power Board © 2001-2020 Invision Power Services, Inc.