Help - Search - Members - Calendar
Full Version: Xyz - Gates Of Death [ep] (2001)
Metal Area - Extreme Music Portal > Releases Area / Релизы > Archive
zmlaiz


*Artist: Xyz
*Album: Gates Of Death [ep]
*Year: 2001
*Genre: Raw Black Metal
*Country: Russian Federation
*Format: mp3@CBR320kbps
*Size: 36MB

Tracklist:
1. Abyss Alone 01:20
2. Gates of Death 02:57
3. In Teresin 03:34
4. Punishment 01:57
5. Eternal Sleep 00:28
6. Folter 02:05
7. To Wall 01:57
8. XYZ 01:03
9. Final 01:09
******************************
Total playing time: 16:30

Extended info



Input File: 1 ABYSS ALONE.mp3
Channels : 2
Sample Rate : 48000
Precision : 16-bit
Duration : 00:01:20.69 = 3873168 samples ~ 6051.82 CDDA sectors
File Size : 3.23M
Bit Rate : 320k
Sample Encoding: MPEG audio (layer I, II or III)
Comments :
Tracknumber=1
Year=2012
Genre=0



[ Hidden Text ]
waldemardr
Название как-то неоднозначно символизирует...
Genuine Thrashiac
ЦИТАТА(waldemardr @ 15th July 2012 - 18:10:44) *
Название как-то неоднозначно символизирует...
Да вообще за сегодня "поднимали" ещё такие блэк группы:
Perdition - Antihuman Divinity [ep] (2007)
Zaebos - Demo 2004 [Demo] (2004)
waldemardr
PERDITION (Погибель) ещё ладно... а вот ZAEBOS - это да, действительно zaebos 1488.gif 15.gif

По сабжу вспомнилась хохма из книги Андрея Ломачинского "Академия родная":
QUOTE
Традиционно составляется сборник ежегодных тезисов научных работ курсантов, куда частенько закрадываются ляпы.
Исследовали влияние нового препарата на состояние летчика в полете – на определённой высоте при маневре у летчика возникла боль в ухе. Приходит письмо из Научного Отдела Академии, где сказано, что они, конечно, все понимают, боль у летчика возникает, но нельзя ли все-таки использовать специальную терминологию, есть же латынь в конце концов…
Как оказалось, набирая текст «боль в ухе», перепутали буквы, и боль стала возникать совсем в другом месте.
Bekkerev
Фигня.
This is a "lo-fi" version of our main content. To view the full version with more information, formatting and images, please click here.
Invision Power Board © 2001-2019 Invision Power Services, Inc.