Help - Search - Members - Calendar
Full Version: Dommedagssalme - Chasm (2012)
Metal Area - Extreme Music Portal > Releases Area / Релизы > Archive
p42es


*Artist: Dommedagssalme
*Album: Chasm
*Year: 2012
*Genre: Atmospheric Black Metal/Ambient
*Country: United Kingdom
*Format: mp3@CBR320kbps
*Size: 185MB

Tracklist:
01. Untitled 02:40
02. Passage 09:50
03. Untitled 03:02
04. Cadence 13:24
05. Untitled 02:32
06. Dissolution 12:3
07. Untitled 02:06
08. Vicissitude 09:42
09. Untitled 02:32
10. Departure 16:06
11. Untitled 03:32
******************************
Total playing time: 1:05:26

Preview 1

Extended info

Self released. Limited to 100 Pro CDrs.


Input File: 06 - Dissolution.mp3
Channels : 2
Sample Rate : 44100
Precision : 16-bit
Duration : 00:12:30.25 = 33086157 samples = 56269 CDDA sectors
File Size : 30.0M
Bit Rate : 320k
Sample Encoding: MPEG audio (layer I, II or III)
Comments :
Title=Dissolution
Artist=Dommedagssalme
Album=Chasm
Tracknumber=06
Year=2012
Genre=atmospheric black / ambient
Discnumber=1/1



[ Hidden Text ]
Lena
Неплохой атмосферик, но альбом очень затянут, устала от него, пока слушала. Его лучше включать как фон.
Еще, как по мне, то тут многовато однообразного вокала.

Razorbladeswaltz
reuploaded

[ Hidden Text ]
lestllk
[ Hidden Text ]
320
PIOJANK
Reupload please!
Borderline1991
[ Hidden Text ]
This is a "lo-fi" version of our main content. To view the full version with more information, formatting and images, please click here.
Invision Power Board © 2001-2019 Invision Power Services, Inc.