Help - Search - Members - Calendar
Full Version: Sump - Cursed Means [demo] (2011)
Metal Area - Extreme Music Portal > Releases Area / Релизы > Archive > Low Bitrate Archive (read only)
Dorjenrist


*Artist: Sump
*Album: Cursed Means [demo]
*Year: 2011
*Genre: Raw Black Metal/Punk
*Country: United Kingdom
*Format: mp3@CBR320kbps
*Size: 28MB

Tracklist:
01. Drowning Albany
02. The Longest Breath
03. Cursid Means
04. Old Fools
05. Throphies
06. Rats Blood
07. Hope You Never Breed
******************************
Total playing time: 12:32

Extended info



Input File: Sump - Drowning Albany.mp3
Channels : 2
Sample Rate : 48000
Precision : 16-bit
Duration : 00:01:54.02 = 5473152 samples ~ 8551.8 CDDA sectors
File Size : 4.61M
Bit Rate : 323k
Sample Encoding: MPEG audio (layer I, II or III)
Comments :
Title=Drowning Albany
Artist=Sump
Album=Cursed Means Cassette
Tracknumber=1/7
Genre=Raw Black Metal



[ Hidden Text ]
Абигор
Перезалито
[ Hidden Text ]
This is a "lo-fi" version of our main content. To view the full version with more information, formatting and images, please click here.
Invision Power Board © 2001-2019 Invision Power Services, Inc.