Help - Search - Members - Calendar
Full Version: Kawir & Nergal & Embrace Of Thorns & Soulskinner - Emissaries Of A Profane Advent [split] (2012)
Metal Area - Extreme Music Portal > Releases Area / Релизы > Archive
necroscum


*Artist: Kawir & Nergal & Embrace Of Thorns & Soulskinner
*Album: Emissaries Of A Profane Advent[split]
*Year: 2012
*Genre: Pagan/Black Metal | Black Metal | Black/Death Metal | Death Metal
*Country: Greece | Greece | Greece | Greece
*Format: mp3@CBR320kbps
*Size: 54MB

Tracklist:
Kawir:
01. Prometheus 06:42
Nergal:
02. Flegethon 04:49
Embrace Of Thorns:
03. Dismal Augur Of Hierophant Mass 04:52
Soulskinner:
04. 44 Caliber Killer 04:45
******************************
Total playing time: 21:08






Extended info



Input File: 04. Soulskinner - 44 Caliber Killer.mp3
Channels : 2
Sample Rate : 44100
Precision : 16-bit
Duration : 00:04:45.73 = 12600517 samples = 21429.5 CDDA sectors
File Size : 11.4M
Bit Rate : 320k
Sample Encoding: MPEG audio (layer I, II or III)
Comments :
Title=B2.Soulskinner - 44 Caliber Killer.mp3
Artist=Soulskinner
Album=Emissaries Of A Profane
Tracknumber=4
Year=2012
Genre=Blues



[ Hidden Text ]
[ Hidden Text ]
Абигор
Added links by drbutcher
inatas_eva_89
Кайф! не глядя понял откуда рип) Но всё равно благодарю!
varlam4
[ Hidden Text ] 320
This is a "lo-fi" version of our main content. To view the full version with more information, formatting and images, please click here.
Invision Power Board © 2001-2020 Invision Power Services, Inc.