Help - Search - Members - Calendar
Full Version: Centauro - Enraizados [ep] (2011)
Metal Area - Extreme Music Portal > Releases Area / Релизы > Archive
Samaritianin


*Artist: Centauro
*Album: Enraizados [ep]
*Year: 2011
*Genre: Thrash Metal
*Country: Mexico
*Format: mp3@CBR320kbps
*Size: 44MB

Tracklist:
01.Enraizado 01:36
02.Carne de Canon 03:06
03.Mano Armada 02:50
04.Voto de Silencio 02:54
05.Indolencia Social 03:45
06.Insano Delator 04:39
07.Olimpia 03:49
******************************
Total playing time: 22:39

Preview 1


Extended info



Input File: 01 Enraizado.mp3
Channels : 2
Sample Rate : 44100
Precision : 16-bit
Duration : 00:01:36.73 = 4265969 samples = 7255.05 CDDA sectors
File Size : 3.87M
Bit Rate : 320k
Sample Encoding: MPEG audio (layer I, II or III)
Comments :
Title=Enraizado
Artist=Centauro
Album=Enraizados
Tracknumber=1
Year=2011
Genre=9



[ Hidden Text ]
Genuine Thrashiac
Круто - так они есть - а зайти - нельзя.
Samaritianin
Ты наведывайся туда почаще-там полнофотматник скоро должен объявиться.
Genuine Thrashiac
ЦИТАТА(Samaritianin @ 20th March 2013 - 14:55:48) *
Ты наведывайся туда почаще-там полнофотматник скоро должен объявиться.
Да, может, обновляются.
Samaritianin
А называться альбом будет "Devastacion Total" bye.gif
Genuine Thrashiac
ЦИТАТА(Samaritianin @ 20th March 2013 - 15:12:12) *
А называться альбом будет "Devastacion Total"
[ Hidden Text ]
slack
Судя по лого - фанаты Креатор 15.gif
Samaritianin
Причем здесь мало или много-я не шаманю на остатках кофейной пены,а
говорю тебе точную информацию по конкретному альбому. dooo.gif bye.gif
Genuine Thrashiac
ЦИТАТА(diflock @ 21st March 2013 - 11:10:37) *
Мексиканские Кентавры драйвовые ! EPишка понравилась ! Поглядим шо цэ за полноформатник будэ ?!
Но, согласись, Креатор-ского не замечено.
Samaritianin
Я было начал рассчитывать на то что они действительно грузят новый альбом...а они то
оказывается не могли себе цену сложить на старый 15.gif [ Hidden Text ] И к чему тогда было на фейсбуке выкладывать ссылку на свободное скачивание этого ЕР?!? Где логика в таких действиях? Мексика..страна пейотля и мескалина 1488.gif
This is a "lo-fi" version of our main content. To view the full version with more information, formatting and images, please click here.
Invision Power Board © 2001-2020 Invision Power Services, Inc.