Help - Search - Members - Calendar
Full Version: Armia - Triodante (1994)
Metal Area - Extreme Music Portal > Releases Area / Релизы > New Releases > Lossless
icingsugar


*Artist: Armia
*Album: Triodante
*Year: 1994
*Genre: Symphonic Punk Rock/Progressive Rock
*Country: Poland
*Format: mp3@CBR320kbps
*Size: 150MB

Tracklist:
1. Wyludniacz 06:19
2. Popioły 06:30
3. Nieruchomo 07:17
4. Miejsce pod słońcem 10:40
5. Dzyń 03:42
6. Ciało i duch 04:54
7. Pieśń przygodna 06:18
8. Piosenka liczb 02:51
9. Święto jaskółki 05:57
10. Skończyłem rozpoczynaj 07:54
******************************
Total playing time: 1:02:22

Preview 1
Preview 2

Extended info
Adaptation of The Divine Comedy (Italian: Divina Commedia) an epic poem written by Dante Alighieri between c. 1308 and his death in 1321.


Technical info

Input File: 05 - Dzyn.mp3
Channels : 2
Sample Rate : 44100
Precision : 16-bit
Duration : 00:03:42.12 = 9795624 samples = 16659.2 CDDA sectors
File Size : 8.89M
Bit Rate : 320k
Sample Encoding: MPEG audio (layer I, II or III)
Comments :
Title=DzyЕ„
Artist=Armia
Album=Triodante
Tracknumber=5
Year=1994
Genre=General Punk
Discnumber=1/1



[ Hidden Text ]
Borderline1991
[ Hidden Text ]
[ Hidden Text ]
This is a "lo-fi" version of our main content. To view the full version with more information, formatting and images, please click here.
Invision Power Board © 2001-2020 Invision Power Services, Inc.