Help - Search - Members - Calendar
Full Version: Exit - Együtt A Szeméttel (1991)
Metal Area - Extreme Music Portal > Releases Area / Релизы > New Releases > Lossless
necroscum


*Artist: Exit
*Album: Együtt A Szeméttel
*Year: 1991
*Genre: Thrash Metal
*Country: Hungary
*Format: mp3@VBR293kbps
*Size: 96MB

Tracklist:
01. Te... 05:15
02. Magány 03:59
03. A Köd 05:14
04. Együtt A Szeméttel 05:53
05. Légy Átkozott! 03:23
06. Sápadt Arcok 04:01
07. Szerepcsere 03:53
08. Igazság 04:25
09. Amikor Az Élök A Holtakat Irigylik 05:19
10. Üres Kín 05:01
******************************
Total playing time: 46:23



Extended info

Input File: 107-exit-szerepcsere.mp3
Channels : 2
Sample Rate : 44100
Precision : 16-bit
Duration : 00:03:53.53 = 10298805 samples = 17515 CDDA sectors
File Size : 8.83M
Bit Rate : 303k
Sample Encoding: MPEG audio (layer I, II or III)
Comments :
Title=Szerepcsere
Artist=Exit
Album=EgyГјtt A SzemГ©ttel
Tracknumber=7/12
Year=2011-00-00
Genre=Thrash Metal
Discnumber=1/2


[ Hidden Text ]
Proteus_666
VBR 145 kbps:
[ Hidden Text ]
boba
Do you guys have this release that was released on CD?
https://www.metal-archives.com/albums/Exit/...Yayol%21/326552
Borderline1991
[ Hidden Text ]
This is a "lo-fi" version of our main content. To view the full version with more information, formatting and images, please click here.
Invision Power Board © 2001-2020 Invision Power Services, Inc.