Help - Search - Members - Calendar
Full Version: Deathening - Chained In Blood (2013)
Metal Area - Extreme Music Portal > Releases Area / Релизы > Archive
necroscum


*Artist: Deathening
*Album: Chained In Blood
*Year: 2013
*Genre: Melodic Death Metal
*Country: Sweden
*Format: mp3@CBR320kbps
*Size: 106MB

Tracklist:
01. Self Impaled 02:32
02. Slave To The Kill 04:03
03. Bleed 07:16
04. Terminal Retribution 04:01
05. Beast Inside 04:58
06. The Living Burn 04:07
07. Ether 00:53
08. Prepare To Die 04:24
09. Lights Out 03:45
10. Butchered Souls Of No Tomorrow 06:05
11. Final Fierce Disdain 02:54
12. Ceased 01:16
******************************
Total playing time: 46:14



Technical info

Input File: 02 Slave To The Kill.mp3
Channels : 2
Sample Rate : 44100
Precision : 16-bit
Duration : 00:04:03.54 = 10740070 samples = 18265.4 CDDA sectors
File Size : 9.74M
Bit Rate : 320k
Sample Encoding: MPEG audio (layer I, II or III)
Comments :
Title=Slave To The Kill
Artist=Deathening
Album=Chained In Blood
Tracknumber=2/12
Year=2013



[ Hidden Text ]
grobator
kakha_k
Нехороший "современный" мдм нынче пошел, совсем стиль испортили ех
kiol1
Качественный продукт.
DenisKov
Сыграно модерново, материал без соплей, но блеклый. В общем, если есть что послушать - можно пропускать.
Kitalter
шведы, а чё-то блин не зацепили(
This is a "lo-fi" version of our main content. To view the full version with more information, formatting and images, please click here.
Invision Power Board © 2001-2021 Invision Power Services, Inc.