Help - Search - Members - Calendar
Full Version: Torture Division - The Worship [demo] (2013)
Metal Area - Extreme Music Portal > Releases Area / Релизы > Archive
Samaritianin


*Artist: Torture Division
*Album: The Worship [demo]
*Year: 2013
*Genre: Death Metal
*Country: Sweden
*Format: mp3@CBR320kbps
*Size: 23MB

Tracklist:
01.I Wanna Beat Somebody 03:46
02.All Rise 03:06
03.Hall Kaften 02:49
******************************
Total playing time: 9:41

Preview 1


Technical info

Input File: 01 - I Wanna Beat Somebody.mp3
Channels : 2
Sample Rate : 44100
Precision : 16-bit
Duration : 00:03:45.99 = 9965939 samples = 16948.9 CDDA sectors
File Size : 9.04M
Bit Rate : 320k
Sample Encoding: MPEG audio (layer I, II or III)
Comments :
Title=I Wanna Beat Somebody
Artist=Torture Division
Album=The Worship
Tracknumber=1
Year=2013
Genre=22



[ Hidden Text ]
defamer666
Зодолбали этими демками 25.gif сколько уже их понавыпускали,не проще было парочку полноформатников выпустить! И вот опять та же история 21.gif
P.S. Но демка,как всегда,классная! metaler.gif metaler.gif metaler.gif
ivanasyanin
Перезалейте, пожалуйста.
Герб
[ Hidden Text ]
This is a "lo-fi" version of our main content. To view the full version with more information, formatting and images, please click here.
Invision Power Board © 2001-2020 Invision Power Services, Inc.