Help - Search - Members - Calendar
Full Version: Assaultery - Life Denied (2013)
Metal Area - Extreme Music Portal > Releases Area / Релизы > Archive
Samaritianin


*Artist: Assaultery
*Album: Life Denied
*Year: 2013
*Genre: Blackened Thrash Metal
*Country: Sweden
*Format: mp3@CBR320kbps
*Size: 68MB

Tracklist:
01.Alien Force 03:12
02.Ancient Rites 04:00
03.March of The Damned 05:19
04.Shadows 04:30
05.Between Worlds 04:49
06.Deal In Lead 03:22
07.Cold Steel 02:39
08.The Executioner 02:49
******************************
Total playing time: 30:40

Preview 1


Extended info
Наконец то они записали полноформатник


Technical info

Input File: 03 - March of the Damned.mp3
Channels : 2
Sample Rate : 44100
Precision : 16-bit
Duration : 00:05:17.81 = 14015333 samples = 23835.6 CDDA sectors
File Size : 12.7M
Bit Rate : 320k
Sample Encoding: MPEG audio (layer I, II or III)
Comments :
Title=March of the Damned
Artist=Assaultery
Album=Life Denied
Tracknumber=3
Year=2013
Genre=Blackened Thrash Metal



[ Hidden Text ]
dm666
Format: mp3@320kbps
[ Hidden Text ]
This is a "lo-fi" version of our main content. To view the full version with more information, formatting and images, please click here.
Invision Power Board © 2001-2021 Invision Power Services, Inc.