Help - Search - Members - Calendar
Full Version: Moonreich - Terribilis Est Locust Iste (2013)
Metal Area - Extreme Music Portal > Releases Area / Релизы > Archive > Low Bitrate Archive (read only)
Samaritianin


*Artist: Moonreich
*Album: Terribilis Est Locust Iste
*Year: 2013
*Genre: Black Metal
*Country: France
*Format: mp3@CBR320kbps
*Size: 132MB

Tracklist:
01.Terribilis Est Locust Iste 08:33
02.Bright Morning Star 07:19
03.Oppressive Light 02:57
04.Chant For A Darkened Gospel 03:57
05.The Serpent Presaging Sinister 04:43
06.Cursed The Day,Hailed The Night 06:20
07.Nos Conspuere In Vobis 05:01
08.Hidden Mystical World 09:57
09.And A Star Fell At The Fifth Sound 09:19
******************************
Total playing time: 58:06

Preview 1


Extended info
В ЛОУ


Technical info

Input File: 01-moonreich-terribilis_est_locus_iste.mp3
Channels : 2
Sample Rate : 44100
Precision : 16-bit
Duration : 00:08:33.80 = 22658492 samples = 38534.9 CDDA sectors
File Size : 20.6M
Bit Rate : 320k
Sample Encoding: MPEG audio (layer I, II or III)
Comments :
Title=Terribilis Est Locus Iste
Artist=Moonreich
Album=Terribilis Est Locus Iste
Tracknumber=1
Year=2013
Genre=Black Metal



[ Hidden Text ]
ultimate_satanic_ass
1000

pray.gif

!
rimfrost


This is a "lo-fi" version of our main content. To view the full version with more information, formatting and images, please click here.
Invision Power Board © 2001-2019 Invision Power Services, Inc.