Help - Search - Members - Calendar
Full Version: Nebula Orionis - Aena [ep] (2013)
Metal Area - Extreme Music Portal > Releases Area / Релизы > Archive > Low Bitrate Archive (read only)
shadow666


*Artist: Nebula Orionis
*Album: Aena [ep]
*Year: 2013
*Genre: Atmospheric Black Metal/Ambient
*Country: Russian Federation
*Format: mp3@CBR320kbps
*Size: 31MB

Tracklist:
1. Aena 03:58
2. Autumn Night Sky 05:24
3. Farewell Scream 05:48
******************************
Total playing time: 15:10

VK

Technical info

Input File: Autumn Night Sky.mp3
Channels : 2
Sample Rate : 44100
Precision : 16-bit
Duration : 00:00:09.95 = 438927 samples = 746.474 CDDA sectors
File Size : 398k
Bit Rate : 320k
Sample Encoding: MPEG audio (layer I, II or III)
Comments :
Title=Autumn Night Sky
Album=Aena
Tracknumber=2
Year=2013-00-00



[ Hidden Text ]
shadow666
опять в лоубитрейт 21.gif странные модеры в последнее время
в Technical info отрывок 9 секунд а не вся песня,внимательнее смотрите...может вам поэтому транскод кажется?
Fess
Очень красивая обложка, прямо под стать той атмосфере, которую несёт музыка. 20.gif
Tulen_FM
С потенциалом, кстати, парень
Но, [мат->бан] чувствуется, что не раскроется
Госпромнадзор
Посредственная копирка Lustre, не впечатлило smile2.gif
This is a "lo-fi" version of our main content. To view the full version with more information, formatting and images, please click here.
Invision Power Board © 2001-2019 Invision Power Services, Inc.