Help - Search - Members - Calendar
Full Version: Redimoni - Standing Before The End Of Time (2012)
Metal Area - Extreme Music Portal > Releases Area / Релизы > Archive
Samaritianin


*Artist: Redimoni
*Album: Standing Before The End Of Time
*Year: 2012
*Genre: Thrash Metal
*Country: Spain
*Format: mp3@CBR320kbps
*Size: 82MB

Tracklist:
01.The End Times 01:19
02.Cast Into the Valley of Hinnom 02:52
03.Shrapnel Wounds 02:49
04.To The Gallows 02:52
05.Towards Destruction 02:51
06.Journey to the Netherworld 04:33
07.Drifting Into Oblivion 02:39
08.The Abyss 03:39
09.Pragmatic Sorcery 03:08
10.Dragged to the Bottom of the Depths 03:39
11.Facing Pazuzu 02:51
12.The Ultimate Victory 03:33
******************************
Total playing time: 36:45



Technical info

Input File: 02 - Cast into the Valley of Hinnom.mp3
Channels : 2
Sample Rate : 44100
Precision : 16-bit
Duration : 00:02:52.18 = 7592918 samples = 12913.1 CDDA sectors
File Size : 6.89M
Bit Rate : 320k
Sample Encoding: MPEG audio (layer I, II or III)
Comments :
Title=Cast into the Valley of Hinnom
Artist=ReDimoni
Album=Standing Before the End of Time
Tracknumber=2
Year=2012
Genre=Thrash Metal



[ Hidden Text ]
pprr
whats happen with rusfolder now, it says error This file is not available for teh.prichine (no_storages)
Diflock
rusfolder in order, downloading is under way, as well, and the material itself umatny despite the singer.
... the sixth track vocal strain stopped, everything is fine.
sperminator
from the web - lossless
[ Hidden Text ]
kastrup
Could anyone re-up this one, please ? pray.gif pray.gif 9.gif 22.gif
Borderline1991
[ Hidden Text ]
kastrup
Thank you so much, my metal sis ! pray.gif pray.gif pray.gif

QUOTE(Borderline1991 @ Jan 13 2021, 15:07:21) *

This is a "lo-fi" version of our main content. To view the full version with more information, formatting and images, please click here.
Invision Power Board © 2001-2021 Invision Power Services, Inc.