Help - Search - Members - Calendar
Full Version: Torture Division & Bent Sea - Paddling The Pink Canoe In A River Of Blood/Partners In Grind [split] (2013)
Metal Area - Extreme Music Portal > Releases Area / Релизы > Archive
добрыйКот


*Artist: Torture Division & Bent Sea
*Album: Paddling The Pink Canoe In A River Of Blood/Partners In Grind [split]
*Year: 2013
*Genre: Death Metal | Grindcore
*Country: Sweden | Belgium
*Format: mp3@CBR320kbps
*Size: 13MB

Tracklist:
Torture Division:
01. Paddling The Pink Canoe In A River Of Blood 03:02
Bent Sea:
02. Partners In Grind 02:02
******************************
Total playing time: 5:04


Preview 2

Technical info

Input File: 02 - Bent Sea - Partners In Grind.mp3
Channels : 2
Sample Rate : 44100
Precision : 16-bit
Duration : 00:02:02.96 = 5422580 samples = 9222.07 CDDA sectors
File Size : 4.94M
Bit Rate : 322k
Sample Encoding: MPEG audio (layer I, II or III)
Comments :
Title=Partners In Grind
Artist=Bent Sea
Album=Torture Division & Bent Sea - Paddling The Pink Canoe In A River Of Blood & Partners In Grind (Split)
Tracknumber=02/02
Year=2013
Genre=Grindcore



[ Hidden Text ]
Koscheyushka
ivanasyanin
Torture Division как всегда радуют качественным материалом и мощным звучанием. Впрочем,Dan Swanц никогда плохого звука не делает 9.gif
ivanasyanin
Перезалейте, пожалуйста.
Герб
[ Hidden Text ]
This is a "lo-fi" version of our main content. To view the full version with more information, formatting and images, please click here.
Invision Power Board © 2001-2020 Invision Power Services, Inc.