Help - Search - Members - Calendar
Full Version: Redeye - Violence [ep] (2013)
Metal Area - Extreme Music Portal > Releases Area / Релизы > Archive
Samaritianin


*Artist: Redeye
*Album: Violence [ep]
*Year: 2013
*Genre: Death/Thrash Metal
*Country: Finland
*Format: mp3@CBR320kbps
*Size: 28MB

Tracklist:
01.Pit of Blood 03:54
02.Visions of Violence 03:10
03.Die Die Die 01:09
04.Cut Open 02:51
******************************
Total playing time: 11:04



Technical info

Input File: 02. Visions of Violence.mp3
Channels : 2
Sample Rate : 44100
Precision : 16-bit
Duration : 00:03:11.00 = 8423188 samples = 14325.1 CDDA sectors
File Size : 8.55M
Bit Rate : 358k
Sample Encoding: MPEG audio (layer I, II or III)
Comments :
Title=Visions of Violence
Artist=REDEYE
Album=Violence
Tracknumber=2
Year=2013
Genre=22



[ Hidden Text ]
Genuine Thrashiac
early them
Redeye - ...Of Blood [ep] (2011)
Redeye - I Am God [demo] (2012)
gorim
320

[ Hidden Text ]
This is a "lo-fi" version of our main content. To view the full version with more information, formatting and images, please click here.
Invision Power Board © 2001-2020 Invision Power Services, Inc.