Help - Search - Members - Calendar
Full Version: Torture Division - The Sacrifice [demo] (2013)
Metal Area - Extreme Music Portal > Releases Area / Релизы > Archive
Samaritianin


*Artist: Torture Division
*Album: The Sacrifice [demo]
*Year: 2013
*Genre: Death Metal
*Country: Sweden
*Format: mp3@CBR320kbps
*Size: 22MB

Tracklist:
01.Queen Sacrifice 03:12
02.Fähund 02:36
03.Flesh Before My Eyes 03:23
******************************
Total playing time: 9:11



Technical info

Input File: 1. Queen Sacrifice.mp3
Channels : 2
Sample Rate : 44100
Precision : 16-bit
Duration : 00:03:13.02 = 8512094 samples = 14476.4 CDDA sectors
File Size : 7.72M
Bit Rate : 320k
Sample Encoding: MPEG audio (layer I, II or III)
Comments :
Title=Queen Sacrifice
Artist=Torture Division
Album=The Sacrifice
Tracknumber=1
Year=2013
Genre=22



[ Hidden Text ]
defamer666
Как всегда в своём олдскульном репертуаре! headcrab.png

P.S. И,как всегда, уже по заведённой традиции - очередная демка (сбился со счёта) 1488.gif
Koscheyushka
ivanasyanin
Перезалейте, пожалуйста.
Герб
[ Hidden Text ]
This is a "lo-fi" version of our main content. To view the full version with more information, formatting and images, please click here.
Invision Power Board © 2001-2020 Invision Power Services, Inc.