Help - Search - Members - Calendar
Full Version: Morok - Смерти Лютой Свистопляс (2013)
Metal Area - Extreme Music Portal > Releases Area / Релизы > Archive > Low Bitrate Archive (read only)
добрыйКот


*Artist: Morok
*Album: Смерти Лютой Свистопляс
*Year: 2013
*Genre: Pagan Black Metal
*Country: Germany
*Format: mp3@CBR320kbps
*Size: 91MB

Tracklist:
01. Смерти Лютой Свистопляс 04:52
02. Последняя Стезя 05:35
03. Око За Око 05:03
04. Водоворотом Талых Ручьев 06:32
05. Жатва 03:26
06. Небо Заревом Зардевается 07:53
07. Тени Ушедших 03:38
08. Ветрам Не Слышать Стона Земли 02:38
******************************
Total playing time: 39:37




Extended info
Low Bitrate


Technical info

Input File: 02 - Последняя Стезя.mp3
Channels : 2
Sample Rate : 44100
Precision : 16-bit
Duration : 00:05:35.92 = 14813940 samples = 25193.8 CDDA sectors
File Size : 13.4M
Bit Rate : 320k
Sample Encoding: MPEG audio (layer I, II or III)
Comments :
Title=Последняя Стезя
Artist=Morok
Album=Смерти Лютой Свистопляс
Tracknumber=02/08
Year=2013
Genre=Pagan Black Metal



[ Hidden Text ]
homelike
Смерти Лютой Свистопляс
по канонам
Starseeker
Стоп! Но ведь Морок, который сейчас в Германии, и нижегородский Морок - разве не разные группы?
kostja
QUOTE(Starseeker @ Dec 12 2013, 13:41:00) *
Стоп! Но ведь Морок, который сейчас в Германии, и нижегородский Морок - разве не разные группы?


А что, кто-нибудь разве утверждал обратное?
buxsta
нормальный такой эмигрант-паган-метал
kostja
Это только у меня одного тэги выглядят так?

Title: !<5@B8 NB>9 !28AB>?;OA
Album: !<5@B8 NB>9 !28AB>?;OA
hmm.gif
Starseeker
ЦИТАТА(kostja @ Dec 12 2013, 13:51:23) *
А что, кто-нибудь разве утверждал обратное?

А ты глянь дискографию.
PeterStewart
Один из лучших паган бм, первая демка была великолепна.
Fess
ЦИТАТА(Starseeker @ Dec 12 2013, 15:41:00) *
Стоп! Но ведь Морок, который сейчас в Германии, и нижегородский Морок - разве не разные группы?

Нижегородский Morok распался.
По сабжу: Хорошо.
Госпромнадзор
Неожиданно. Всё-таки разродились альбомом.
Brutal
хороший альбом, а может даже отличный.
Starseeker
ЦИТАТА(Fess @ Dec 12 2013, 18:57:27) *
Нижегородский Morok распался.
По сабжу: Хорошо.

Так я знаю, сам из Нижнего. Этот почему в одну дискографию с тем засунут - вот в чём вопрос.
Wotanwatch
In The Forests Of Slavia- один из самых заслушанный мной альбомов,я уже и не надеялся,что у них что-то еще выйдет.Новинка года для меня-это одназначно
folker
крепкий релиз! Одобряю!
komkoban
QUOTE(добрыйКот @ Dec 12 2013, 14:39:39) *
http://metalarea.org/images/audiocovers/20...14627_thumb.jpg

*Artist: Morok
*Album: Смерти Лютой Свистопляс
*Year: 2013
*Genre: Pagan Black Metal
*Country: Germany http://metalarea.org/forum/style_images/flags/Germany.png
*Format: mp3@CBR320kbps
*Size: 91MB

Tracklist:
01. Смерти Лютой Свистопляс 04:52
02. Последняя Стезя 05:35
03. Око За Око 05:03
04. Водоворотом Талых Ручьев 06:32
05. Жатва 03:26
06. Небо Заревом Зардевается 07:53
07. Тени Ушедших 03:38
08. Ветрам Не Слышать Стона Земли 02:38
******************************
Total playing time: 39:37


http://metalarea.org/images/youtube.png

Extended info
Low Bitrate


Technical info
http://metalarea.org/images/spectrogram/20...0bab5338f43.png
Input File: 02 - Последняя Стезя.mp3
Channels : 2
Sample Rate : 44100
Precision : 16-bit
Duration : 00:05:35.92 = 14813940 samples = 25193.8 CDDA sectors
File Size : 13.4M
Bit Rate : 320k
Sample Encoding: MPEG audio (layer I, II or III)
Comments :
Title=Последняя Стезя
Artist=Morok
Album=Смерти Лютой Свистопляс
Tracknumber=02/08
Year=2013
Genre=Pagan Black Metal



Ссылка за годы умерла, есть ли ещё?
Goatrex
Reupload please!
carla667
can anybody reup this file?
RUDACHUR
ЦИТАТА(carla667 @ May 1 2018, 19:00:40) *
can anybody reup this file?


Morok - Fiery Dances Of Dying (2013)
This is a "lo-fi" version of our main content. To view the full version with more information, formatting and images, please click here.
Invision Power Board © 2001-2019 Invision Power Services, Inc.