Help - Search - Members - Calendar
Full Version: Dead Reptile Shrine - Praise Cemetary (2013)
Metal Area - Extreme Music Portal > Releases Area / Релизы > Archive > Low Bitrate Archive (read only)
Tulen_FM


*Artist: Dead Reptile Shrine
*Album: Praise Cemetary
*Year: 2013
*Genre: Black Metal
*Country: Finland
*Format: mp3@VBR180kbps
*Size: 75MB

Tracklist:
01. Mountain Ov Souls
02. Inside The Marble Polyandrium
03. Dust Fortress
04. Living Torch
05. Masonic Corpse Codex
06. Death Trap
07. Unicursal Hex
08. Dimension Of Mirrors
09. Frozen Gate To Nowhere
10. Death Of A Sorcerer King
******************************
Total playing time: 58:25

Technical info

Input File: 01. Mountain Ov Souls.mp3
Channels : 2
Sample Rate : 44100
Precision : 16-bit
Duration : 00:03:38.85 = 9651417 samples = 16414 CDDA sectors
File Size : 5.32M
Bit Rate : 194k
Sample Encoding: MPEG audio (layer I, II or III)
Comments :
Title=Mountain Ov Souls
Artist=Dead Reptile Shrine
Album=Praise Cemetary
Tracknumber=1/10
Year=2013
Genre=138
Discnumber=1/1



[ Hidden Text ]
Zaephar
"The owner may have deleted files or made it private. Or maybe the link contains an error." fear.gif
elsunga
QUOTE(Zaephar @ Dec 24 2013, 11:05:49) *
"The owner may have deleted files or made it private. Or maybe the link contains an error." fear.gif

REUP PLEASE!!!
Tulen_FM
[ Hidden Text ]
Простите, пожалуйста.
Это я напортачил.
zargonath
youtube preview
acerbus
Я что-то путаю или этот альбом и правда вышел самым ломовым и "дружелюбным" по отношению к слушателю? То, что слушал раньше, как будто бы бросало мне вызов, здесь же такого нет. Релиз на repeat так и просится, снова и снова.
Goatrex
Тенденция к более легко воспринимаемой "слушабельности" наметилась еще в предыдущем, и весьма жаль, если в новом релизе это продолжилось.
Kub
грибы теряют концентрацию.
Forrrrest
ЦИТАТА(Kub @ Dec 26 2013, 05:37:29) *
грибы теряют концентрацию.


smile2.gif
VVurd
ЦИТАТА(Goatrex @ Dec 26 2013, 04:17:54) *
Тенденция к более легко воспринимаемой "слушабельности" наметилась еще в предыдущем, и весьма жаль, если в новом релизе это продолжилось.
Половина этого материала (Mountain Ov Souls, Inside The Marble Polyandrium, Dust Fortress, Unicursal Hex, Death Of A Sorcerer King) была готова и должна была выйти на виниле ещё в начале 2009 года (остальные трэки записаны позднее, но, не факт, что намного). Прошлый полноформат, The Sun of Circles and the Wood, тоже должен был выйти в начале 2009. Посему не исключаю, что записано все это примерно в одно и то же время.
Материал отличный, на мой взгляд. Менее отмороженно-ох**вший, чем ранние записи, но не менее одухотворённый. 25.gif
kronos
первое мое знакомство с этой группой. меня вот давно ничего так не радовало, очень понравилось. прям амброзия для ушек 20.gif
советую всем заценивать, пропускать такое не рекомендовано smile1.gif
пойду ценить остальные творения сей замечательной группы spitggis0.gif

возникли некого рода ассоциации с Armanenshaft, что-то есть похожее - глючность, вероятно

быть может, кто-нибудь может порекомендовать что-нить еще с глючного блэка? с CoO знаком, с тем же Armanenshaft тоже
VVurd
ЦИТАТА(kronos @ Jan 2 2014, 12:54:43) *
возникли некого рода ассоциации с Armanenshaft, что-то есть похожее - глючность, вероятно
быть может, кто-нибудь может порекомендовать что-нить еще с глючного блэка? с CoO знаком, с тем же Armanenshaft тоже
Попробуй Legacies Unchain и Misantropical Painforest 25.gif
This is a "lo-fi" version of our main content. To view the full version with more information, formatting and images, please click here.
Invision Power Board © 2001-2019 Invision Power Services, Inc.