Help - Search - Members - Calendar
Full Version: Drowning The Light - Lost Kingdoms Of A Dark Age [ep] (2013)
Metal Area - Extreme Music Portal > Releases Area / Релизы > Archive > Low Bitrate Archive (read only)
Funeral Frost


*Artist: Drowning The Light
*Album: Lost Kingdoms Of A Dark Age [ep]
*Year: 2013
*Genre: Raw Epic Black Metal
*Country: Australia
*Format: mp3@CBR320kbps
*Size: 48MB

Tracklist:
1. The Old Ones Stir Again 2:14
2. Death Rides On The Wings Of Flies 6:43
3. Crypt Of Necromancy (The Key Still Not Found Part II) 6:13
4. Lost Kingdoms Of A Dark Age 5:55
******************************
Total playing time: 21:05



Technical info

Input File: 02 - Death Rides On The Wings Of Flies.mp3
Channels : 2
Sample Rate : 44100
Precision : 16-bit
Duration : 00:06:43.52 = 17795232 samples = 30264 CDDA sectors
File Size : 16.1M
Bit Rate : 320k
Sample Encoding: MPEG audio (layer I, II or III)
Comments :
Title=Death Rides On The Wings Of Flies
Artist=Drowning The Light
Album=Lost Kingdoms Of A Dark Age
Tracknumber=2
Year=2013
Genre=Black Metal



[ Hidden Text ]
maringlen
KVLT.THANK YOU SO MUCH
Forrrrest
pray.gif
Constantinus I

shadow666
о,крутяк)
Fess
Обложка классная, а по музыке, всё как всегда. 21.gif
Razorbladeswaltz
обложка выполнена как всегда отлично. а вот по музыке, имхо, САМЫЙ СЛАБЫЙ релиз Азгора.
neoatheist
Божественно! pray.gif
This is a "lo-fi" version of our main content. To view the full version with more information, formatting and images, please click here.
Invision Power Board © 2001-2019 Invision Power Services, Inc.