Help - Search - Members - Calendar
Full Version: Blood Farmers - Headless Eyes (2014)
Metal Area - Extreme Music Portal > Releases Area / Релизы > Archive
eyehategod


*Artist: Blood Farmers
*Album: Headless Eyes
*Year: 2014
*Genre: Doom Metal
*Country: United States
*Format: mp3@CBR320kbps
*Size: 97MB

Tracklist:
1. Gut Shot 06:17
2. Headless Eyes 10:49
3. The Creeper 04:51
4. Thousand-Yard Stare 06:34
5. Night of the Sorcerers 10:15
6. The Road Leads to Nowhere (David Hess cover) 05:59
******************************
Total playing time: 44:45



Technical info

Input File: 01 - Gut Shot.mp3
Channels : 2
Sample Rate : 44100
Precision : 16-bit
Duration : 00:06:17.60 = 16652160 samples = 28320 CDDA sectors
File Size : 15.1M
Bit Rate : 320k
Sample Encoding: MPEG audio (layer I, II or III)
Comments :
Title=Gut Shot
Artist=Blood Farmers
Album=Headless Eyes
Tracknumber=01/06
Year=2014
Genre=Doom Metal
Discnumber=1/1



[ Hidden Text ]
drbutcher
это круто pray.gif... деды молодцы
AHBAnep
#2 - 256 Kbps, и спектр там в пределах 16 КГц...
vosmidesijatye
9 лет прошло - ровным счётом ничего не изменилось. А оно вам надо? Мне - категорически-катастрофически нет. Облога стала ещё причудливо-кошмарнее, всё лучшее в вокале и музыке осталось на прежних местах. А большего и не надо. Милости прошу, кому интересен настоящий сермяжный дум. С кровавых полей психованных фермеров.
KVRT


такого добра, да по-больше бып
milan
Can someone please reupload this?
vosmidesijatye
@320

[ Hidden Text ]
babanguida
nice one 9.gif
This is a "lo-fi" version of our main content. To view the full version with more information, formatting and images, please click here.
Invision Power Board © 2001-2019 Invision Power Services, Inc.