Help - Search - Members - Calendar
Full Version: Virus Of Koch - Lux Ex Veritas (2014)
Metal Area - Extreme Music Portal > Releases Area / Релизы > Archive
Samaritianin


*Artist: Virus Of Koch
*Album: Lux Ex Veritas
*Year: 2014
*Genre: Melodic Death/Black Metal
*Country: Greece
*Format: mp3@VBR300kbps
*Size: 72MB

Tracklist:
1. Fleur De Lis 02:07
2. H.w.C.f.A. 04:20
3. Semen of the Serpent 05:02
4. Nameless Legions 03:33
5. Clavicula Nox 04:48
6. Noctenebra Maxima Aeterna 04:49
7. Speculum Argenteum 04:56
8. Chaos Matrix 06:30 S
******************************
Total playing time: 36:05



Technical info

Input File: 03. Semen of the Serpent.mp3
Channels : 2
Sample Rate : 44100
Precision : 16-bit
Duration : 00:05:02.99 = 13362035 samples = 22724.5 CDDA sectors
File Size : 11.5M
Bit Rate : 303k
Sample Encoding: MPEG audio (layer I, II or III)
Comments :
Title=Semen of the Serpent
Artist=Virus Of Koch
Album=Lux Et Veritas
Tracknumber=3
Year=2014
Genre=Melodic Black Metal



[ Hidden Text ]
Jacktheripper666
Послушал, полная смена стиля по сравнению с предыдущими демками. Ничего сверхестественного, просто бронебойный ураган. Достойно прослушивания, хотя бы ради барабанов
Old Vyaine
QUOTE(Jacktheripper666 @ 9th May 2014 - 22:52:42) *
бронебойный ураган


это, например, Anaal Nathrakh. Тут всё куда лиричней.
V1nterch
Неплохое музло так-то.
DenisKov
Согласен, на пару прослушиваний вполне сойдет.
Angeldemon617
Found in Ulozto.net VBR
[ Hidden Text ]
This is a "lo-fi" version of our main content. To view the full version with more information, formatting and images, please click here.
Invision Power Board © 2001-2019 Invision Power Services, Inc.