Help - Search - Members - Calendar
Full Version: The Furor - Impending Revelation (2014)
Metal Area - Extreme Music Portal > Releases Area / Релизы > Archive
Samaritianin


*Artist: The Furor
*Album: Impending Revelation
*Year: 2014
*Genre: Black/Death Metal
*Country: Australia
*Format: mp3@CBR320kbps
*Size: 100MB

Tracklist:
1. Hammer Hierarchy 05:49
2. Inferno Fortificaion 04:29
3. Summoned Obscurity 03:51
4. Seven Trumpets (Ceaseless Armageddon) 04:35
5. Corpse Eclipse 06:21
6. Diabolic Liberation 05:43
7. Black Sorcerer of Sadism 04:24
8. Show No Mercy 03:04
9. The Pentagran Prevails 05:37
******************************
Total playing time: 43:53



Technical info

Input File: 03 - Summoned Obscurity.mp3
Channels : 2
Sample Rate : 44100
Precision : 16-bit
Duration : 00:03:50.86 = 10180838 samples = 17314.4 CDDA sectors
File Size : 9.24M
Bit Rate : 320k
Sample Encoding: MPEG audio (layer I, II or III)
Comments :
Title=Summoned Obscurity
Artist=The Furor
Album=Impending Revelation
Tracknumber=3
Year=2014
Genre=Death Metal



[ Hidden Text ]
nomadgg1
почти все прослушал. порожняк.
Fryz
А обложка настраивала на положительный исход smile1.gif
varlam4
Перезалейте плз
Ingvar
102 mb/320 kbps
[ Hidden Text ]
This is a "lo-fi" version of our main content. To view the full version with more information, formatting and images, please click here.
Invision Power Board © 2001-2020 Invision Power Services, Inc.