Help - Search - Members - Calendar
Full Version: Triosphere - The Heart Of The Matter (2014)
Metal Area - Extreme Music Portal > Releases Area / Релизы > Archive
Samaritianin


*Artist: Triosphere
*Album: The Heart Of The Matter
*Year: 2014
*Genre: Power/Progressive Metal
*Country: Norway
*Format: mp3@CBR320kbps
*Size: 127MB

Tracklist:
01. My Fortress 04:43
02. Steal Away the Light 03:53
03. The Sentinel 04:04
04. Breathless 05:18
05. Departure 04:46
06. The Heart's Dominion 05:02
07. As I Call 04:07
08. Relentless 04:14
09. The sphere 04:37
10. Remedy 05:29
11. Storyteller 04:58
12. Virgin Ground 03:10
******************************
Total playing time: 54:21



Technical info

Input File: 02. Steal Away the Light.mp3
Channels : 2
Sample Rate : 44100
Precision : 16-bit
Duration : 00:03:53.32 = 10289588 samples = 17499.3 CDDA sectors
File Size : 9.61M
Bit Rate : 330k
Sample Encoding: MPEG audio (layer I, II or III)
Comments :
Title=Steal Away the Light
Artist=Triosphere
Album=The Heart of the Matter
Tracknumber=2/12
Year=2014
Genre=Metal
Discnumber=1/1



[ Hidden Text ]
Old Vyaine
MeatWolf
По второй песне я уж было подумал, что можно слушать, ан нет, обознался, всё так же странно и несъедобно.
Quacksha
QUOTE(MeatWolf @ 7th November 2014 - 11:20:29) *
По второй песне я уж было подумал, что можно слушать, ан нет, обознался, всё так же странно и несъедобно.


The Road Less Travelled в 2010 у меня железно в топе итоговом был. По первым ощущениям, новый альбом не такой крутой, но композиций пять (Steal Away the Light, The Sentinel, Breathless, As I Call (всё никак не вспомню откуда они мелодию припева спёрли hmm.gif ) и Remedy) в голове уже крутятся. Риффовка в боевичках вот только уж больно однообразная (тут он ближе к дебютнику)... Зато соляки стали вроде как поинтереснее даже. Ну и Ида за прошедшие четыре года глотку драть хуже не стала. true_black.gif

Большие превьюшки:



Shadowman
Как уже кто-то ранее заметил, ближе к концу года посыпались действительно годные альбомы. Весьма порадовала и эта группа. Примерно в таком ключе когда-то играли и Synergy, только вокалистка Triosphere даст Кимберли Госс хорошую фору.
Есть несколько проходных тем, но большая часть - просто бомба!
DenisKov
Хорошый альбом, надо еще послушать, но по первым ощущениям песен 5 оставлю.
Metropolis
Живенько, понравилось.
Shadowman
Из всех прослушанных альбомов за 2014 год этот цепанул больше всего. Даже не ожидал. Как уже писал, очень впечатлила вокалистка.
Renegade765
Awesome~ Thanks!
Quacksha
QUOTE(Shadowman @ 6th December 2014 - 02:17:31) *
Как уже писал, очень впечатлила вокалистка.


А предыдущие два альбома как тебе?
Shadowman
ЦИТАТА(Quacksha @ Dec 16 2014, 01:19:17) *
А предыдущие два альбома как тебе?

Все собираюсь скачать, и забываю =) Надеюсь, что они не хуже.
Foneg
Вот я и прослоупочил их выход. Надеюсь, хоть новый Эпизод не пропущу.
Ingvar
127 mb/320 kbps
[ Hidden Text ]
This is a "lo-fi" version of our main content. To view the full version with more information, formatting and images, please click here.
Invision Power Board © 2001-2019 Invision Power Services, Inc.