Help - Search - Members - Calendar
Full Version: Eternal Mystery & Insomnia Isterica - Eternal Mystery/Insomnia Isterica [split] (2008)
Metal Area - Extreme Music Portal > Releases Area / Релизы > Archive
Gelukas


*Artist: Eternal Mystery & Insomnia Isterica
*Album: Eternal Mystery/Insomnia Isterica [split]
*Year: 2008
*Genre: Death Metal/Grindcore | Grindcore
*Country: United States | Switzerland
*Format: mp3@CBR320kbps
*Size: 72MB

Tracklist:
Eternal Mystery:
1. Feasting on Ignorance 02:16
2. Complete and Total Chaos 00:31
3. Politically Incorrect 00:22
4. Is Abuse a Joke? 03:11
5. National Crisis 00:52
6. The Wages of Sin Is... 00:07
7. The Beast 01:56
8. Rewarding the Sloth 00:40
9. Stand Your Ground 00:31
10. Cheap Cliches 01:08
11. Fraud 01:28
12. Faithless Belief (re-recorded) 02:31
Insomnia Isterica:
13. Catering of Human Flesh 03:33
14. Alla Ricerca Dell'accesso Per L'ascesso 02:01
15. Nervi 02:32
16. Il Meglio Che Date Di Voi: Niente 01:26
17. Tossico 02:44
18. Mauro Pons Is Rock'n'Roll 02:20
19. Griller (Patareni cover) 01:29
******************************
Total playing time: 31:38




Technical info

Input File: 03. Eternal Mystery - Politically Incorrect.mp3
Channels : 2
Sample Rate : 44100
Precision : 16-bit
Duration : 00:00:21.52 = 949032 samples = 1614 CDDA sectors
File Size : 869k
Bit Rate : 323k
Sample Encoding: MPEG audio (layer I, II or III)
Comments :
Title=Politically Incorrect
Artist=Eternal Mystery
Album=Eternal Mystery / Insomnia Isterica (Split)
Tracknumber=03/19
Year=2008
Genre=9



[ Hidden Text ]
Lanceatum
[ Hidden Text ]
This is a "lo-fi" version of our main content. To view the full version with more information, formatting and images, please click here.
Invision Power Board © 2001-2022 Invision Power Services, Inc.