Help - Search - Members - Calendar
Full Version: Deathrune - Those Who Choose The Falen [best of/compilation] (2013)
Metal Area - Extreme Music Portal > Releases Area / Релизы > Archive
AskeFjell


*Artist: Deathrune
*Album: Those Who Choose The Falen [best of/compilation]
*Year: 2013
*Genre: Death Metal
*Country: United States
*Format: mp3@CBR320kbps
*Size: 291MB

Tracklist:
Disc 1
1. De som väljer dom fallna (Intro) 01:14
2. Plague March 05:02
3. Undead Ways 04:37
4. Memories of the Exhumed 03:32
5. Ghostwinds 05:28
6. Shadow of the Headsman 03:42
7. Llanreithan (Instr) 01:57
8. Forgotten Path 03:51
9. Remain Forever Entangled 03:43
10. Deserted Churchyards 04:22
11. Choosers of the Slain 03:16
12. Beneath the Cypress Groves 04:55
13. Dark Tides of Yuggoth 06:51


Disc 2
1. Fear in My Eyes 04:43
2. Mass Grave 04:33
3. I Await 04:14
4. Netherworld 04:46
5. Shrouded in Disbelief 05:22
6. Eyes of Hate 04:20
7. The Lake of Endless Sleep 05:08
8. Beneath the Cypress Groves 06:05
9. Possession Nocturne 06:15
10. Beneath the Cypress Groves 05:38
11. From the Land of Cold and Mist 03:32
12. Memories of the Exhumed 03:30
13. Forgotten Path 03:46
14. Undead Ways 04:22
15. Shadow of the Headsman 03:32
16. Promise of Heaven 03:26
17. Choosers of the Slain 03:08
18. Remain Forever Entangled
******************************
Total playing time: 2:08:50

Extended info
Disc 1 is an unreleased full-length album recorded in 1996.

Disc 2 contains the bands first four demos:
Tracks 1-4 are taken from Demo 1991.
Tracks 5-9 are taken from the Beneath the Cypress Groves demo.
Tracks 10-13 are taken from the Memories of the Exhumed demo.
Tracks 14-18 are taken from the Remain Forever Entangled demo


Technical info

Input File: 01 - de som valjer dom fallna (intro).mp3
Channels : 2
Sample Rate : 44100
Precision : 16-bit
Duration : 00:01:18.81 = 3475697 samples = 5911.05 CDDA sectors
File Size : 3.15M
Bit Rate : 320k
Sample Encoding: MPEG audio (layer I, II or III)
Comments :
Title=De som väljer dom fallna (Intro)
Artist=Deathrune
Album=Those Who Choose the Fallen (CD 1)
Tracknumber=01
Year=2013
Genre=Death Metal



[ Hidden Text ]
AHBAnep
http://www.youtube.com/watch?v=ozhOaZVydZA
troll_swamp
Спасибо вам AskeFjell за знакомство с такой классной формацией, группу раньше не знал и очень доволен знакомством, олд-скул-нью-йорк дет метал стайл во всей своей прелести, очень круто, думаю любителям Morpheus Descends, Baphomet, Incantation самое то !!! Я если честно слушаю их уже второй день и прусь как мыльный хрен по шиферу metaler.gif pray.gif metaler.gif , я бы сказал жирная, вязкая, бульдозерная весчьььььььььььььььь !!!
samokot
ЦИТАТА(troll_swamp @ Mar 23 2016, 12:17:47) *
... прусь как мыльный хрен по шиферу metaler.gif pray.gif metaler.gif
пытаюсь представить эту картину, но не могу headcrab.png Вона как человека проняло!
Но материал и правда хорош, именно в духе вышеуказанных банд из Нью-Йорка и окрестностей. Для демок начала 90-х тут очень даже хорошее звучание. Жаль, что материал не был по-человечески реализован.
P.S. А облога какая-то паверная, я чуть мимо не прошел.
sperminator
надо брать! если что, есть, вот, ещё яндекс, с дв:
[ Hidden Text ]
jorgeguldur
QUOTE(AskeFjell @ Dec 20 2014, 08:59:04) *
<a href="https://metalarea.org/images/audiocovers/2014_Dec/acov_tid235980_thumb.jpg" target="_blank">https://metalarea.org/images/audiocovers/20...35980_thumb.jpg </a>

*Artist: Deathrune
*Album: Those Who Choose The Falen [best of/compilation]
*Year: 2013
*Genre: Death Metal
*Country: United States https://metalarea.org/forum/style_images/fl...ed%20States.png
*Format: mp3@CBR320kbps
*Size: 291MB

Tracklist:
Disc 1
1. De som väljer dom fallna (Intro) 01:14
2. Plague March 05:02
3. Undead Ways 04:37
4. Memories of the Exhumed 03:32
5. Ghostwinds 05:28
6. Shadow of the Headsman 03:42
7. Llanreithan (Instr) 01:57
8. Forgotten Path 03:51
9. Remain Forever Entangled 03:43
10. Deserted Churchyards 04:22
11. Choosers of the Slain 03:16
12. Beneath the Cypress Groves 04:55
13. Dark Tides of Yuggoth 06:51


Disc 2
1. Fear in My Eyes 04:43
2. Mass Grave 04:33
3. I Await 04:14
4. Netherworld 04:46
5. Shrouded in Disbelief 05:22
6. Eyes of Hate 04:20
7. The Lake of Endless Sleep 05:08
8. Beneath the Cypress Groves 06:05
9. Possession Nocturne 06:15
10. Beneath the Cypress Groves 05:38
11. From the Land of Cold and Mist 03:32
12. Memories of the Exhumed 03:30
13. Forgotten Path 03:46
14. Undead Ways 04:22
15. Shadow of the Headsman 03:32
16. Promise of Heaven 03:26
17. Choosers of the Slain 03:08
18. Remain Forever Entangled
******************************
Total playing time: 2:08:50

Extended info
Disc 1 is an unreleased full-length album recorded in 1996.

Disc 2 contains the bands first four demos:
Tracks 1-4 are taken from Demo 1991.
Tracks 5-9 are taken from the Beneath the Cypress Groves demo.
Tracks 10-13 are taken from the Memories of the Exhumed demo.
Tracks 14-18 are taken from the Remain Forever Entangled demo


Technical info
https://metalarea.org/images/spectrogram/20...c72cb48b983.png
Input File: 01 - de som valjer dom fallna (intro).mp3
Channels : 2
Sample Rate : 44100
Precision : 16-bit
Duration : 00:01:18.81 = 3475697 samples = 5911.05 CDDA sectors
File Size : 3.15M
Bit Rate : 320k
Sample Encoding: MPEG audio (layer I, II or III)
Comments :
Title=De som väljer dom fallna (Intro)
Artist=Deathrune
Album=Those Who Choose the Fallen (CD 1)
Tracknumber=01
Year=2013
Genre=Death Metal



Track 2 on second CD is missing: Mass Grave
deatholocaust
lossless плиз
This is a "lo-fi" version of our main content. To view the full version with more information, formatting and images, please click here.
Invision Power Board © 2001-2019 Invision Power Services, Inc.