Help - Search - Members - Calendar
Full Version: Desolate Sun - Descending Stairways (2012)
Metal Area - Extreme Music Portal > Releases Area / Релизы > Archive
BlackArrow


*Artist: Desolate Sun
*Album: Descending Stairways
*Year: 2012
*Genre: Gothic/Doom Metal
*Country: Italy
*Format: mp3@CBR320kbps
*Size: 73MB

Tracklist:
1. The Only Way To Live 05:59
2. Estranged 03:54
3. Butterflies Fall 04:35
4. Numb 03:55
5. Never Ending Distrust 02:50
6. Astray 04:01
7. Dead Lights 04:29
8. Gone 01:38
******************************
Total playing time: 31:21



Technical info

Input File: 01 - The Only Way to Live.mp3
Channels : 2
Sample Rate : 48000
Precision : 16-bit
Duration : 00:05:59.69 = 17265168 samples ~ 26976.8 CDDA sectors
File Size : 14.4M
Bit Rate : 320k
Sample Encoding: MPEG audio (layer I, II or III)
Comments :
Title=The Only Way to Live
Artist=Desolate Sun
Album=Descending Stairways
Tracknumber=1
Year=2012
Genre=Metal



[ Hidden Text ]
avather
А похоже все это дело на Pyogenesis, причем и из раннего, и из среднего периода творчества. И это гуд!
Hughes
ЦИТАТА(avather @ 15th January 2015 - 22:54:59) *
А похоже все это дело на Pyogenesis, причем и из раннего, и из среднего периода творчества. И это гуд!


Согласен насчёт гуда,но к сожалению,до "золотого" Пиодженезиса чуток не дотягивает...Ну и на том спасибо!
Dipsomaniac
Перезалить сможете?
Borderline1991
[ Hidden Text ]
This is a "lo-fi" version of our main content. To view the full version with more information, formatting and images, please click here.
Invision Power Board © 2001-2020 Invision Power Services, Inc.