Help - Search - Members - Calendar
Full Version: Einvera - In Your Image (2011)
Metal Area - Extreme Music Portal > Releases Area / Релизы > Archive
necroscum


*Artist: Einvera
*Album: In Your Image
*Year: 2011
*Genre: Avant-Garde/Extreme Metal
*Country: United States
*Format: mp3@CBR320kbps
*Size: 76MB

Tracklist:
01. Static Ascension 03:54
02. Let In Without A Name (Sea Of Trees) 04:57
03. Invariably Transient 04:13
04. Send Me Home 02:06
05. Prismatic Distortion 04:35
06. In Your Image 06:01
07. The Gift Of A Ghost 02:50
08. A Mausoleum For The Living 04:39
******************************
Total playing time: 33:15





Technical info

Input File: 02. Let in Without a Name (Sea of Trees).mp3
Channels : 2
Sample Rate : 44100
Precision : 16-bit
Duration : 00:04:57.10 = 13101890 samples = 22282.1 CDDA sectors
File Size : 11.9M
Bit Rate : 320k
Sample Encoding: MPEG audio (layer I, II or III)
Comments :
Title=Let in Without a Name (Sea of Trees)
Artist=Einvera
Album=In Your Image
Tracknumber=02
Year=2011



[ Hidden Text ]
Baalslayer
BlackArrow
Перезалейте пожалуйста!
Angren
Очень качественный альбом, тут хорошо соблюден баланс безумия и тяжести
wendigo
QUOTE(BlackArrow @ Apr 21 2016, 09:51:34) *
Перезалейте пожалуйста!

From the webz (Dark-World):
[ Hidden Text ]
Astralgeist
320
[ Hidden Text ]
This is a "lo-fi" version of our main content. To view the full version with more information, formatting and images, please click here.
Invision Power Board © 2001-2021 Invision Power Services, Inc.