Help - Search - Members - Calendar
Full Version: Dimitriy Pavlovskiy's PowerSquad - Shrine Of The Wanderer (2015)
Metal Area - Extreme Music Portal > Releases Area / Релизы > Archive
Samaritianin


*Artist: Dimitriy Pavlovskiy's PowerSquad
*Album: Shrine Of The Wanderer
*Year: 2015
*Genre: Heavy/Power Metal
*Country: Ukraine
*Format: mp3@CBR320kbps
*Size: 105MB

Tracklist:
01. Journey 05:29
02. Spectrophobia [Fear] 05:26
03. Molder 04:50
04. Contour 04:01
05. Natural Ground 04:31
06. Bohyňa Usvitu 05:39
07. Abacinate 04:39
08. Screaming Pain 04:11
09. Abandonned Shrine of the Wanderer 06:33
10. Forgotten Nights 01:24
******************************
Total playing time: 46:43



Technical info

Input File: 03. Dimitriy Pavlovskiy\\\'s Powersquad - Molder.mp3
Channels : 2
Sample Rate : 44100
Precision : 16-bit
Duration : 00:02:19.67 = 6159271 samples = 10475 CDDA sectors
File Size : 5.63M
Bit Rate : 323k
Sample Encoding: MPEG audio (layer I, II or III)
Comments :
Title=Molder
Artist=Dimitriy Pavlovskiy's Powersquad
Album=Shrine of the Wanderer
Tracknumber=3
Year=2015



[ Hidden Text ]
zauber1
Прогрессив хард рок. Третьесортный, да.
Hellraizer
Дмитрий Павловский и БАТАЛЬОНЫ ВЕЛИКОЛЕПИЯ.
Дмитрий Павловский и ПОЛЧИЩА НЕКОНТРОЛИРУЕМОГО УЖАСА.
Дмитрий Павловский и ОРДА ПРЕВОЗМОГАНИЯ.
Дмитрий Павловский и ОТДЕЛЕНИЕ ХИТРЕЦОВ.
Дмитрий Павловский и АРМИЯ ОДНОГО ДМИТРИЯ ПАВЛОВСКОГО.
Algis
ЦИТАТА(Hellraizer @ Mar 11 2015, 19:21:10) *
Дмитрий Павловский и БАТАЛЬОНЫ ВЕЛИКОЛЕПИЯ.
Дмитрий Павловский и ПОЛЧИЩА НЕКОНТРОЛИРУЕМОГО УЖАСА.
Дмитрий Павловский и ОРДА ПРЕВОЗМОГАНИЯ.
Дмитрий Павловский и ОТДЕЛЕНИЕ ХИТРЕЦОВ.
Дмитрий Павловский и АРМИЯ ОДНОГО ДМИТРИЯ ПАВЛОВСКОГО.
Это лучшее что здесь есть.
Hellraizer
Algis,

Спасибо товарищу Arsenot'у за его безумное вдохновение.
vosmidesijatye
А шо вы сопсна хотите?

Это стиль такой - тут пафос и напыщенность в порядке вещей

Вон Мановар же никто не sрет за их Хэйл килл эн дай и прочую тему 25.gif
This is a "lo-fi" version of our main content. To view the full version with more information, formatting and images, please click here.
Invision Power Board © 2001-2022 Invision Power Services, Inc.